查看: 14|回復: 0
打印 上一主題 下一主題

[喜劇片] 死期將至 Date.of.the.Dead.2015.1080p.WEBRip.x264-iNTENSO 4.21GB

[復制鏈接]

 成長值: 3390

級別:資源管理組

注冊時間
2017-10-20
最后登錄
2019-12-8
聽眾
1
收聽
0
主題
88163
藍光幣
69195 枚
貢獻
12525 點
跳轉到指定樓層
樓主
發表于 2019-10-16 15:33:17 | 只看該作者 |只看大圖 回帖獎勵 |倒序瀏覽 |閱讀模式


譯  名 死期將至
片  名 Date of the Dead
年  代 2015
產  地 美國
類  別 喜劇 / 恐怖
語  言 英語
IMDb評分  4.5/10 from 96 users
IMDb鏈接  https://www.imdb.com/title/tt3591836
豆瓣評分 0/10 from 0 users
豆瓣鏈接 https://movie.douban.com/subject/26649642/
導  演 Grant Nelson

簡  介  

  暫無相關劇情介紹
  1. Video
  2. ID                                       : 1
  3. Format                                   : AVC
  4. Format/Info                              : Advanced Video Codec
  5. Format profile                           : [email protected]
  6. Format settings                          : CABAC / 4 Ref Frames
  7. Format settings, CABAC                   : Yes
  8. Format settings, Reference frames        : 4 frames
  9. Codec ID                                 : V_MPEG4/ISO/AVC
  10. Duration                                 : 1 h 37 min
  11. Bit rate                                 : 5 981 kb/s
  12. Width                                    : 1 920 pixels
  13. Height                                   : 1 080 pixels
  14. Display aspect ratio                     : 16:9
  15. Frame rate mode                          : Constant
  16. Frame rate                               : 23.976 (24000/1001) FPS
  17. Color space                              : YUV
  18. Chroma subsampling                       : 4:2:0
  19. Bit depth                                : 8 bits
  20. Scan type                                : Progressive
  21. Bits/(Pixel*Frame)                       : 0.120
  22. Stream size                              : 4.08 GiB (97%)
  23. Writing library                          : x264 core 152 r2851 ba24899
  24. Encoding settings                        : cabac=1 / ref=4 / deblock=1:-3:-3 / analyse=0x3:0x133 / me=umh / subme=11 / psy=1 / psy_rd=1.05:0.15 / mixed_ref=1 / me_range=16 / chroma_me=1 / trellis=2 / 8x8dct=1 / cqm=0 / deadzone=21,11 / fast_pskip=0 / chroma_qp_offset=-3 / threads=12 / lookahead_threads=1 / sliced_threads=0 / nr=0 / decimate=1 / interlaced=0 / bluray_compat=0 / constrained_intra=0 / bframes=3 / b_pyramid=2 / b_adapt=2 / b_bias=0 / direct=3 / weightb=1 / open_gop=0 / weightp=2 / keyint=250 / keyint_min=24 / scenecut=40 / intra_refresh=0 / rc_lookahead=50 / rc=crf / mbtree=1 / crf=17.0 / qcomp=0.60 / qpmin=0 / qpmax=69 / qpstep=4 / ip_ratio=1.40 / aq=3:0.65
  25. Language                                 : English
  26. Default                                  : Yes
  27. Forced                                   : No

  28. Audio
  29. ID                                       : 2
  30. Format                                   : AAC LC
  31. Format/Info                              : Advanced Audio Codec Low Complexity
  32. Codec ID                                 : A_AAC-2
  33. Duration                                 : 1 h 37 min
  34. Bit rate                                 : 192 kb/s
  35. Channel(s)                               : 2 channels
  36. Channel layout                           : L R
  37. Sampling rate                            : 48.0 kHz
  38. Frame rate                               : 46.875 FPS (1024 SPF)
  39. Compression mode                         : Lossy
  40. Stream size                              : 132 MiB (3%)
  41. Language                                 : English
  42. Default                                  : Yes
  43. Forced                                   : No
復制代碼








分享到:  QQ好友和群QQ好友和群
收藏收藏
VIP會員免費任意下載本站所有資源!---點擊開通
回復

使用道具 舉報

懶得打字嘛,點擊右側快捷回復 【右側內容,后臺自定義】
您需要登錄后才可以回帖 登錄 | 立即注冊

本版積分規則

QQ|Archiver|手機版|小黑屋| 中國高清網 |網站地圖

GMT+8, 2019-12-8 17:26 , Processed in 0.109269 second(s), 36 queries .

Powered by HDchina X3.4

Copyright 2017-2019©HDchina.All right reserved

返回頂部 聯系我們
活塞对步行者历史记录