查看: 5|回復: 0
打印 上一主題 下一主題

[喜劇片] 再見完美結局/完美結局 Not.Another.Happy.Ending.2013.1080p.AMZN.WEBRip.DDP5.1.x264-monkee 5.56GB

[復制鏈接]

 成長值: 2850

級別:資源管理組

注冊時間
2017-10-20
最后登錄
2019-10-17
聽眾
1
收聽
0
主題
84964
藍光幣
55421 枚
貢獻
9321 點
跳轉到指定樓層
樓主
發表于 昨天 15:31 | 只看該作者 |只看大圖 回帖獎勵 |倒序瀏覽 |閱讀模式


譯  名 再見完美結局 / 完美結局 / 幸福結局
片  名 Not Another Happy Ending
年  代 2013
產  地 英國
類  別 喜劇 / 愛情
語  言 英語
上映日期 2013-10-11(英國)
IMDb評分  6.2/10 from 4000 users
IMDb鏈接  https://www.imdb.com/title/tt1808339
豆瓣評分 7.0/10 from 1161 users
豆瓣鏈接 https://movie.douban.com/subject/6972921/
片  長 102分鐘
導  演 John McKay
編  劇 1338959
主  演 凱倫·吉蘭 Karen Gillan
       斯坦利·韋伯 Stanley Weber
       伊恩·德·卡斯泰克 Iain De Caestecker
       艾米·曼森 Amy Manson
       凱特·迪基 Kate Dickie
       弗雷婭·梅弗 Freya Mavor
       1338958
       Louise Goodall
       加里·劉易斯 Gary Lewis
       亨利·伊安·庫斯克 Henry Ian Cusick


標  簽 英國 | 愛情 | 喜劇 | 文藝 | 2013 | 小清新 | 治愈系 | 凱倫·吉蘭

簡  介  

  年輕小說家Jane(凱倫·吉蘭 Karen Gillan 飾)完成了帶有自傳性質的作品,被多家出版社退稿后,終于得到出版商Tom(斯坦利·韋伯 Stanley Weber 飾)的賞識。二人經過一番討論修改后,小說出版了,然而Jane發現書名被Tom擅自改成《完美結局》。憤怒的Jane決定寫完合同里簽訂的第二本書后,就與Tom分道揚鑣。同時,《完美結局》受到讀者的熱烈追捧,Jane還因此獲得新人獎。
  Jane開始著手寫第二本小說,開始時很順利,直到最后一章,她陷入了瓶頸期。出版商Tom在后面窮追猛打,暗地里使勁辦法幫她度過瓶頸期。另一方面,她還得處理與父親、以及同居男友的關系,讀者們對于她的第二部作品十分期待,Jane能不能迎來屬于自己的完美結局?

獲獎情況  

  第18屆釜山國際電影節(2013)
  未來景象獎(提名) 約翰·麥凱
  1. Video
  2. ID                                       : 1
  3. Format                                   : AVC
  4. Format/Info                              : Advanced Video Codec
  5. Format profile                           : [email protected]
  6. Format settings                          : CABAC / 4 Ref Frames
  7. Format settings, CABAC                   : Yes
  8. Format settings, Reference frames        : 4 frames
  9. Codec ID                                 : V_MPEG4/ISO/AVC
  10. Duration                                 : 1 h 42 min
  11. Bit rate mode                            : Variable
  12. Bit rate                                 : 7 159 kb/s
  13. Maximum bit rate                         : 15.0 Mb/s
  14. Width                                    : 1 920 pixels
  15. Height                                   : 1 080 pixels
  16. Display aspect ratio                     : 16:9
  17. Frame rate mode                          : Constant
  18. Frame rate                               : 23.976 (24000/1001) FPS
  19. Color space                              : YUV
  20. Chroma subsampling                       : 4:2:0
  21. Bit depth                                : 8 bits
  22. Scan type                                : Progressive
  23. Bits/(Pixel*Frame)                       : 0.144
  24. Stream size                              : 5.10 GiB (92%)
  25. Writing library                          : x264 core 148 r2623 d5b2374
  26. Encoding settings                        : cabac=1 / ref=4 / deblock=1:-1:-1 / analyse=0x3:0x133 / me=umh / subme=9 / psy=1 / psy_rd=1.00:0.15 / mixed_ref=1 / me_range=24 / chroma_me=1 / trellis=2 / 8x8dct=1 / cqm=0 / deadzone=21,11 / fast_pskip=1 / chroma_qp_offset=-3 / threads=34 / lookahead_threads=5 / sliced_threads=0 / nr=150 / decimate=1 / interlaced=0 / bluray_compat=0 / constrained_intra=0 / bframes=8 / b_pyramid=2 / b_adapt=2 / b_bias=0 / direct=3 / weightb=1 / open_gop=0 / weightp=2 / keyint=120 / keyint_min=61 / scenecut=0 / intra_refresh=0 / rc_lookahead=120 / rc=crf / mbtree=1 / crf=18.0 / qcomp=0.60 / qpmin=0 / qpmax=69 / qpstep=4 / vbv_maxrate=15000 / vbv_bufsize=31250 / crf_max=0.0 / nal_hrd=vbr / filler=0 / ip_ratio=1.40 / aq=3:1.00
  27. Default                                  : Yes
  28. Forced                                   : No
  29. Color range                              : Limited
  30. Color primaries                          : BT.709
  31. Transfer characteristics                 : BT.709
  32. Matrix coefficients                      : BT.709

  33. Audio
  34. ID                                       : 2
  35. Format                                   : E-AC-3
  36. Format/Info                              : Enhanced AC-3
  37. Commercial name                          : Dolby Digital Plus
  38. Codec ID                                 : A_EAC3
  39. Duration                                 : 1 h 42 min
  40. Bit rate mode                            : Constant
  41. Bit rate                                 : 640 kb/s
  42. Channel(s)                               : 6 channels
  43. Channel layout                           : L R C LFE Ls Rs
  44. Sampling rate                            : 48.0 kHz
  45. Frame rate                               : 31.250 FPS (1536 SPF)
  46. Compression mode                         : Lossy
  47. Stream size                              : 467 MiB (8%)
  48. Language                                 : English
  49. Service kind                             : Complete Main
  50. Default                                  : Yes
  51. Forced                                   : No

  52. Text
  53. ID                                       : 3
  54. Format                                   : UTF-8
  55. Codec ID                                 : S_TEXT/UTF8
  56. Codec ID/Info                            : UTF-8 Plain Text
  57. Duration                                 : 1 h 41 min
  58. Bit rate                                 : 66 b/s
  59. Count of elements                        : 1554
  60. Stream size                              : 49.8 KiB (0%)
  61. Language                                 : English
  62. Default                                  : No
  63. Forced                                   : No
復制代碼









分享到:  QQ好友和群QQ好友和群
收藏收藏
VIP會員免費任意下載本站所有資源!---點擊開通
回復

使用道具 舉報

懶得打字嘛,點擊右側快捷回復 【右側內容,后臺自定義】
您需要登錄后才可以回帖 登錄 | 立即注冊

本版積分規則

QQ|Archiver|手機版|小黑屋| 中國高清網 |網站地圖

GMT+8, 2019-10-17 17:53 , Processed in 0.261258 second(s), 38 queries .

Powered by HDchina X3.4

Copyright 2017-2019©HDchina.All right reserved

返回頂部 聯系我們
活塞对步行者历史记录