查看: 4|回復: 0
打印 上一主題 下一主題

[劇情片] 馬背上的女孩 The.Horse.Dancer.2017.1080p.WEBRip.x264-STRiFE 6.91GB

[復制鏈接]

 成長值: 2850

級別:資源管理組

注冊時間
2017-10-20
最后登錄
2019-10-17
聽眾
1
收聽
0
主題
84964
藍光幣
55403 枚
貢獻
9321 點
跳轉到指定樓層
樓主
發表于 昨天 15:29 | 只看該作者 |只看大圖 回帖獎勵 |倒序瀏覽 |閱讀模式


譯  名 馬背上的女孩
片  名 The Horse Dancer
年  代 2017
產  地 美國
類  別 家庭
語  言 英語
上映日期 2017-01-07(美國)
IMDb評分  4.4/10 from 189 users
IMDb鏈接  https://www.imdb.com/title/tt6228640
豆瓣評分 0/10 from 0 users
豆瓣鏈接 https://movie.douban.com/subject/27092519/
片  長 114分鐘
導  演 Joel Paul Reisig
編  劇 Mike Davidson
主  演 Richard Karn
       杰森·倫敦 Jason London
       Sophie Bolen
       Kristen Ryda
       Rachel Sowers
       Kristin Mellian
       Carl Harry Carlson
       Alisha Atallah
       Melissa Bayer
       Rhiam Bichri
       Jay J. Bidwell
       Andrea Bray
       Cameron Brosky
       Andre Carter
       Colleen Gentry


簡  介  

  最有前途之一的年輕體操運動員,Samantha Wick也是大家公認的最難相處的女孩。盡管她有整個夏天的時間可以參加奧運會的體操訓練,但是她并不想參加。追求夢想,跟隨內心的想法才是真實的自己,于是她決定加入一個女子馬術夏令營,以實現在馬背上騎行的夢想。在夏令營里,她結識了很多新朋友,在那里她感到很充實,快樂。與其他隊員的相處并沒有那么的困難,大家都很努力上進。 然后,有一天教練召集所有女孩和老師們開會,宣布了一個所有人既震驚又傷感的消息。因為資金周轉困難的原因,馬術夏令營決定終止。   法律顧問想到一個主意,利用Samantha體操的精湛技術,結合馬術,表演舞蹈,稱這個表演為馬背上的舞者。接著他們成立了一個小組,在馬背上表演舞蹈,并籌集資金保住夏令營。
  1. Video
  2. ID                                       : 1
  3. Format                                   : AVC
  4. Format/Info                              : Advanced Video Codec
  5. Format profile                           : [email protected]
  6. Format settings                          : CABAC / 4 Ref Frames
  7. Format settings, CABAC                   : Yes
  8. Format settings, Reference frames        : 4 frames
  9. Codec ID                                 : V_MPEG4/ISO/AVC
  10. Duration                                 : 1 h 54 min
  11. Bit rate                                 : 8 290 kb/s
  12. Width                                    : 1 920 pixels
  13. Height                                   : 1 080 pixels
  14. Display aspect ratio                     : 16:9
  15. Frame rate mode                          : Constant
  16. Frame rate                               : 23.976 (24000/1001) FPS
  17. Color space                              : YUV
  18. Chroma subsampling                       : 4:2:0
  19. Bit depth                                : 8 bits
  20. Scan type                                : Progressive
  21. Bits/(Pixel*Frame)                       : 0.167
  22. Stream size                              : 6.61 GiB (96%)
  23. Writing library                          : x264 core 152 r2851 ba24899
  24. Encoding settings                        : cabac=1 / ref=4 / deblock=1:-3:-3 / analyse=0x3:0x133 / me=umh / subme=9 / psy=1 / psy_rd=1.00:0.15 / mixed_ref=1 / me_range=16 / chroma_me=1 / trellis=2 / 8x8dct=1 / cqm=0 / deadzone=21,11 / fast_pskip=0 / chroma_qp_offset=-2 / threads=12 / lookahead_threads=1 / sliced_threads=0 / nr=0 / decimate=1 / interlaced=0 / bluray_compat=0 / constrained_intra=0 / bframes=3 / b_pyramid=2 / b_adapt=2 / b_bias=0 / direct=3 / weightb=1 / open_gop=0 / weightp=2 / keyint=240 / keyint_min=23 / scenecut=40 / intra_refresh=0 / rc_lookahead=50 / rc=crf / mbtree=1 / crf=17.0 / qcomp=0.60 / qpmin=0 / qpmax=69 / qpstep=4 / ip_ratio=1.40 / aq=3:0.80
  25. Language                                 : English
  26. Default                                  : Yes
  27. Forced                                   : No

  28. Audio
  29. ID                                       : 2
  30. Format                                   : AC-3
  31. Format/Info                              : Audio Coding 3
  32. Commercial name                          : Dolby Digital
  33. Codec ID                                 : A_AC3
  34. Duration                                 : 1 h 54 min
  35. Bit rate mode                            : Constant
  36. Bit rate                                 : 384 kb/s
  37. Channel(s)                               : 6 channels
  38. Channel layout                           : L R C LFE Ls Rs
  39. Sampling rate                            : 48.0 kHz
  40. Frame rate                               : 31.250 FPS (1536 SPF)
  41. Bit depth                                : 16 bits
  42. Compression mode                         : Lossy
  43. Stream size                              : 313 MiB (4%)
  44. Language                                 : English
  45. Service kind                             : Complete Main
  46. Default                                  : Yes
  47. Forced                                   : No

  48. Text
  49. ID                                       : 3
  50. Format                                   : UTF-8
  51. Codec ID                                 : S_TEXT/UTF8
  52. Codec ID/Info                            : UTF-8 Plain Text
  53. Duration                                 : 1 h 54 min
  54. Bit rate                                 : 59 b/s
  55. Count of elements                        : 2235
  56. Stream size                              : 50.1 KiB (0%)
  57. Language                                 : English
  58. Default                                  : No
  59. Forced                                   : No
復制代碼









分享到:  QQ好友和群QQ好友和群
收藏收藏
VIP會員免費任意下載本站所有資源!---點擊開通
回復

使用道具 舉報

懶得打字嘛,點擊右側快捷回復 【右側內容,后臺自定義】
您需要登錄后才可以回帖 登錄 | 立即注冊

本版積分規則

QQ|Archiver|手機版|小黑屋| 中國高清網 |網站地圖

GMT+8, 2019-10-17 15:07 , Processed in 0.234019 second(s), 38 queries .

Powered by HDchina X3.4

Copyright 2017-2019©HDchina.All right reserved

返回頂部 聯系我們
活塞对步行者历史记录