查看: 79|回復: 0
打印 上一主題 下一主題

[劇情片] 婚禮客人/前男友行不行 The.Wedding.Guest.2018.1080p.BluRay.REMUX.AVC.DTS-HD.MA.5.1-FGT 19.60GB

[復制鏈接]

 成長值: 5440

級別:資源管理組

注冊時間
2017-10-20
最后登錄
2020-5-26
聽眾
1
收聽
0
主題
96181
藍光幣
150946 枚
貢獻
20559 點
跳轉到指定樓層
樓主
發表于 2019-10-16 15:27:51 | 只看該作者 |只看大圖 回帖獎勵 |倒序瀏覽 |閱讀模式


譯  名 婚禮客人 / 前男友行不行(臺)
片  名 The Wedding Guest
年  代 2018
產  地 英國
類  別 劇情
語  言 英語
上映日期 2018-09-08(多倫多電影節)
IMDb評分  5.6/10 from 332 users
IMDb鏈接  http://www.imdb.com/title/tt7645780
豆瓣評分 0/10 from 0 users
豆瓣鏈接 https://movie.douban.com/subject/27199331/
片  長 94分鐘
導  演 邁克爾·溫特伯頓 Michael Winterbottom
編  劇 邁克爾·溫特伯頓 Michael Winterbottom
主  演 戴夫·帕特爾 Dev Patel
      拉迪卡·艾普特 Radhika Apte
      吉姆·薩伯 Jim Sarbh
      Harish Khanna
      Nish Nathwani
      Sidhu Manpreet
      Meherbaan Singh


標  簽 英國 | 劇情 | 印度 | MichaelWinterbottom | 2018 | 2010s | 英國電影 | 電影院

簡  介  

  戴夫·帕特爾加盟導演邁克爾·溫特伯頓新片[婚禮客人](Wedding Guest,暫譯)。影片背景發生在印度,片方尚未透露劇情。溫特伯頓曾憑借[關塔那摩之路]問鼎柏林電影節金熊獎、另憑[塵世之間]榮最佳導演銀熊獎。目前影片前期籌備工作已經展開,導演已于近日遠赴孟買,與當地演員進行接洽。

  1. Video
  2. ID                                       : 1
  3. Format                                   : AVC
  4. Format/Info                              : Advanced Video Codec
  5. Format profile                           : [email protected]
  6. Format settings                          : CABAC / 4 Ref Frames
  7. Format settings, CABAC                   : Yes
  8. Format settings, Reference frames        : 4 frames
  9. Codec ID                                 : V_MPEG4/ISO/AVC
  10. Duration                                 : 1 h 36 min
  11. Bit rate mode                            : Variable
  12. Bit rate                                 : 25.0 Mb/s
  13. Maximum bit rate                         : 30.0 Mb/s
  14. Width                                    : 1 920 pixels
  15. Height                                   : 1 080 pixels
  16. Display aspect ratio                     : 16:9
  17. Frame rate mode                          : Constant
  18. Frame rate                               : 23.976 (24000/1001) FPS
  19. Color space                              : YUV
  20. Chroma subsampling                       : 4:2:0
  21. Bit depth                                : 8 bits
  22. Scan type                                : Progressive
  23. Bits/(Pixel*Frame)                       : 0.502
  24. Stream size                              : 16.9 GiB (86%)
  25. Title                                    : The.Wedding.Guest.2018.1080p.BluRay.REMUX.AVC.DTS-HD.MA.5.1-FGT
  26. Language                                 : English
  27. Default                                  : No
  28. Forced                                   : No
  29. Color range                              : Limited
  30. Color primaries                          : BT.709
  31. Transfer characteristics                 : BT.709
  32. Matrix coefficients                      : BT.709

  33. Audio #1
  34. ID                                       : 2
  35. Format                                   : DTS XLL
  36. Format/Info                              : Digital Theater Systems
  37. Commercial name                          : DTS-HD Master Audio
  38. Codec ID                                 : A_DTS
  39. Duration                                 : 1 h 40 min
  40. Bit rate mode                            : Variable
  41. Bit rate                                 : 2 124 kb/s
  42. Channel(s)                               : 6 channels
  43. Channel layout                           : C L R Ls Rs LFE
  44. Sampling rate                            : 48.0 kHz
  45. Frame rate                               : 93.750 FPS (512 SPF)
  46. Bit depth                                : 16 bits
  47. Compression mode                         : Lossless
  48. Stream size                              : 1.49 GiB (8%)
  49. Title                                    : The.Wedding.Guest.2018.1080p.BluRay.REMUX.AVC.DTS-HD.MA.5.1-FGT
  50. Language                                 : English
  51. Default                                  : Yes
  52. Forced                                   : No

  53. Audio #2
  54. ID                                       : 3
  55. Format                                   : PCM
  56. Format settings                          : Little / Signed
  57. Codec ID                                 : A_PCM/INT/LIT
  58. Duration                                 : 1 h 40 min
  59. Bit rate mode                            : Constant
  60. Bit rate                                 : 1 536 kb/s
  61. Channel(s)                               : 2 channels
  62. Sampling rate                            : 48.0 kHz
  63. Frame rate                               : 30.000 FPS (1600 SPF)
  64. Bit depth                                : 16 bits
  65. Stream size                              : 1.07 GiB (5%)
  66. Title                                    : The.Wedding.Guest.2018.1080p.BluRay.REMUX.AVC.DTS-HD.MA.5.1-FGT
  67. Language                                 : English
  68. Default                                  : No
  69. Forced                                   : No

  70. Audio #3
  71. ID                                       : 4
  72. Format                                   : AC-3
  73. Format/Info                              : Audio Coding 3
  74. Commercial name                          : Dolby Digital
  75. Codec ID                                 : A_AC3
  76. Duration                                 : 1 h 36 min
  77. Bit rate mode                            : Constant
  78. Bit rate                                 : 256 kb/s
  79. Channel(s)                               : 2 channels
  80. Channel layout                           : L R
  81. Sampling rate                            : 48.0 kHz
  82. Frame rate                               : 31.250 FPS (1536 SPF)
  83. Bit depth                                : 16 bits
  84. Compression mode                         : Lossy
  85. Stream size                              : 177 MiB (1%)
  86. Title                                    : The.Wedding.Guest.2018.1080p.BluRay.REMUX.AVC.DTS-HD.MA.5.1-FGT
  87. Language                                 : English
  88. Service kind                             : Complete Main
  89. Default                                  : No
  90. Forced                                   : No

  91. Text #1
  92. ID                                       : 5
  93. Format                                   : UTF-8
  94. Codec ID                                 : S_TEXT/UTF8
  95. Codec ID/Info                            : UTF-8 Plain Text
  96. Duration                                 : 1 h 31 min
  97. Bit rate                                 : 33 b/s
  98. Count of elements                        : 863
  99. Stream size                              : 22.3 KiB (0%)
  100. Title                                    : English-SRT
  101. Language                                 : English
  102. Default                                  : Yes
  103. Forced                                   : No

  104. Text #2
  105. ID                                       : 6
  106. Format                                   : PGS
  107. Muxing mode                              : zlib
  108. Codec ID                                 : S_HDMV/PGS
  109. Codec ID/Info                            : Picture based subtitle format used on BDs/HD-DVDs
  110. Duration                                 : 1 h 32 min
  111. Bit rate                                 : 29.9 kb/s
  112. Count of elements                        : 2236
  113. Stream size                              : 19.8 MiB (0%)
  114. Title                                    : English-PGS
  115. Language                                 : English
  116. Default                                  : No
  117. Forced                                   : No

  118. Text #3
  119. ID                                       : 7
  120. Format                                   : PGS
  121. Muxing mode                              : zlib
  122. Codec ID                                 : S_HDMV/PGS
  123. Codec ID/Info                            : Picture based subtitle format used on BDs/HD-DVDs
  124. Duration                                 : 1 h 31 min
  125. Bit rate                                 : 24.5 kb/s
  126. Count of elements                        : 1704
  127. Stream size                              : 16.1 MiB (0%)
  128. Title                                    : Spanish-PGS
  129. Language                                 : Spanish
  130. Default                                  : No
  131. Forced                                   : No

  132. Menu
  133. 00:00:00.000                             : en:Chapter 01
  134. 00:07:13.474                             : en:Chapter 02
  135. 00:15:32.056                             : en:Chapter 03
  136. 00:24:01.189                             : en:Chapter 04
  137. 00:33:14.993                             : en:Chapter 05
  138. 00:39:54.767                             : en:Chapter 06
  139. 00:47:04.530                             : en:Chapter 07
  140. 00:55:17.230                             : en:Chapter 08
  141. 01:05:21.167                             : en:Chapter 09
  142. 01:13:59.309                             : en:Chapter 10
  143. 01:19:52.913                             : en:Chapter 11
  144. 01:31:10.590                             : en:Chapter 12
復制代碼









分享到:  QQ好友和群QQ好友和群
收藏收藏
回復

使用道具 舉報

懶得打字嘛,點擊右側快捷回復 【右側內容,后臺自定義】
您需要登錄后才可以回帖 登錄 | 立即注冊

本版積分規則

Archiver|手機版|小黑屋| 中國高清網 ( ICP備17007870號-2 ) |網站地圖 

GMT+8, 2020-5-26 12:21 , Processed in 0.103494 second(s), 37 queries .

Powered by HDchina X3.4

Copyright 2017-2019©HDchina.All right reserved

返回頂部 聯系我們
活塞对步行者历史记录