查看: 78|回復: 1
打印 上一主題 下一主題

[劇情片] 婚禮客人/前男友行不行 The.Wedding.Guest.2018.1080p.BluRay.x264.DTS-HD.MA.5.1-FGT 8.09GB

[復制鏈接]

 成長值: 3460

級別:資源管理組

注冊時間
2017-10-20
最后登錄
2019-12-14
聽眾
1
收聽
0
主題
88450
藍光幣
71126 枚
貢獻
12812 點
跳轉到指定樓層
樓主
發表于 2019-10-16 15:25:21 | 只看該作者 |只看大圖 回帖獎勵 |倒序瀏覽 |閱讀模式


譯  名 婚禮客人 / 前男友行不行(臺)
片  名 The Wedding Guest
年  代 2018
產  地 英國
類  別 劇情
語  言 英語
上映日期 2018-09-08(多倫多電影節)
IMDb評分  5.6/10 from 332 users
IMDb鏈接  http://www.imdb.com/title/tt7645780
豆瓣評分 0/10 from 0 users
豆瓣鏈接 https://movie.douban.com/subject/27199331/
片  長 94分鐘
導  演 邁克爾·溫特伯頓 Michael Winterbottom
編  劇 邁克爾·溫特伯頓 Michael Winterbottom
主  演 戴夫·帕特爾 Dev Patel
      拉迪卡·艾普特 Radhika Apte
      吉姆·薩伯 Jim Sarbh
      Harish Khanna
      Nish Nathwani
      Sidhu Manpreet
      Meherbaan Singh


標  簽 英國 | 劇情 | 印度 | MichaelWinterbottom | 2018 | 2010s | 英國電影 | 電影院

簡  介  

  戴夫·帕特爾加盟導演邁克爾·溫特伯頓新片[婚禮客人](Wedding Guest,暫譯)。影片背景發生在印度,片方尚未透露劇情。溫特伯頓曾憑借[關塔那摩之路]問鼎柏林電影節金熊獎、另憑[塵世之間]榮最佳導演銀熊獎。目前影片前期籌備工作已經展開,導演已于近日遠赴孟買,與當地演員進行接洽。

  1. Video
  2. ID                                       : 1
  3. Format                                   : AVC
  4. Format/Info                              : Advanced Video Codec
  5. Format profile                           : [email protected]
  6. Format settings                          : CABAC / 5 Ref Frames
  7. Format settings, CABAC                   : Yes
  8. Format settings, Reference frames        : 5 frames
  9. Codec ID                                 : V_MPEG4/ISO/AVC
  10. Duration                                 : 1 h 36 min
  11. Bit rate                                 : 9 768 kb/s
  12. Width                                    : 1 920 pixels
  13. Height                                   : 808 pixels
  14. Display aspect ratio                     : 2.40:1
  15. Frame rate mode                          : Constant
  16. Frame rate                               : 23.976 (24000/1001) FPS
  17. Color space                              : YUV
  18. Chroma subsampling                       : 4:2:0
  19. Bit depth                                : 8 bits
  20. Scan type                                : Progressive
  21. Bits/(Pixel*Frame)                       : 0.263
  22. Stream size                              : 6.59 GiB (81%)
  23. Title                                    : The.Wedding.Guest.2018.1080p.BluRay.x264.DTS-HD.MA.5.1-FGT
  24. Writing library                          : x264 core 158 r2984 3759fcb
  25. Encoding settings                        : cabac=1 / ref=5 / deblock=1:-3:-3 / analyse=0x3:0x133 / me=umh / subme=8 / psy=1 / psy_rd=1.00:0.00 / mixed_ref=1 / me_range=16 / chroma_me=1 / trellis=1 / 8x8dct=1 / cqm=0 / deadzone=21,11 / fast_pskip=0 / chroma_qp_offset=-2 / threads=25 / lookahead_threads=4 / sliced_threads=0 / nr=0 / decimate=1 / interlaced=0 / bluray_compat=0 / constrained_intra=0 / bframes=3 / b_pyramid=2 / b_adapt=1 / b_bias=0 / direct=3 / weightb=1 / open_gop=0 / weightp=2 / keyint=250 / keyint_min=23 / scenecut=40 / intra_refresh=0 / rc_lookahead=50 / rc=2pass / mbtree=1 / bitrate=9768 / ratetol=1.0 / qcomp=0.60 / qpmin=0 / qpmax=69 / qpstep=4 / cplxblur=20.0 / qblur=0.5 / vbv_maxrate=62500 / vbv_bufsize=78125 / nal_hrd=none / filler=0 / ip_ratio=1.40 / aq=1:1.00
  26. Default                                  : Yes
  27. Forced                                   : No

  28. Audio
  29. ID                                       : 2
  30. Format                                   : DTS XLL
  31. Format/Info                              : Digital Theater Systems
  32. Commercial name                          : DTS-HD Master Audio
  33. Codec ID                                 : A_DTS
  34. Duration                                 : 1 h 40 min
  35. Bit rate mode                            : Variable
  36. Bit rate                                 : 2 124 kb/s
  37. Channel(s)                               : 6 channels
  38. Channel layout                           : C L R Ls Rs LFE
  39. Sampling rate                            : 48.0 kHz
  40. Frame rate                               : 93.750 FPS (512 SPF)
  41. Bit depth                                : 16 bits
  42. Compression mode                         : Lossless
  43. Stream size                              : 1.49 GiB (18%)
  44. Title                                    : The.Wedding.Guest.2018.1080p.BluRay.x264.DTS-HD.MA.5.1-FGT
  45. Language                                 : English
  46. Default                                  : Yes
  47. Forced                                   : No

  48. Text #1
  49. ID                                       : 3
  50. Format                                   : UTF-8
  51. Codec ID                                 : S_TEXT/UTF8
  52. Codec ID/Info                            : UTF-8 Plain Text
  53. Duration                                 : 1 h 31 min
  54. Bit rate                                 : 33 b/s
  55. Count of elements                        : 863
  56. Stream size                              : 22.3 KiB (0%)
  57. Title                                    : English-SRT
  58. Language                                 : English
  59. Default                                  : Yes
  60. Forced                                   : No

  61. Text #2
  62. ID                                       : 4
  63. Format                                   : PGS
  64. Muxing mode                              : zlib
  65. Codec ID                                 : S_HDMV/PGS
  66. Codec ID/Info                            : Picture based subtitle format used on BDs/HD-DVDs
  67. Duration                                 : 1 h 32 min
  68. Bit rate                                 : 29.9 kb/s
  69. Count of elements                        : 2236
  70. Stream size                              : 19.8 MiB (0%)
  71. Title                                    : English-PGS
  72. Language                                 : English
  73. Default                                  : No
  74. Forced                                   : No

  75. Text #3
  76. ID                                       : 5
  77. Format                                   : PGS
  78. Muxing mode                              : zlib
  79. Codec ID                                 : S_HDMV/PGS
  80. Codec ID/Info                            : Picture based subtitle format used on BDs/HD-DVDs
  81. Duration                                 : 1 h 31 min
  82. Bit rate                                 : 24.5 kb/s
  83. Count of elements                        : 1704
  84. Stream size                              : 16.1 MiB (0%)
  85. Title                                    : Spanish-PGS
  86. Language                                 : Spanish
  87. Default                                  : No
  88. Forced                                   : No

  89. Menu
  90. 00:00:00.000                             : en:Chapter 01
  91. 00:07:13.474                             : en:Chapter 02
  92. 00:15:32.056                             : en:Chapter 03
  93. 00:24:01.189                             : en:Chapter 04
  94. 00:33:14.993                             : en:Chapter 05
  95. 00:39:54.767                             : en:Chapter 06
  96. 00:47:04.530                             : en:Chapter 07
  97. 00:55:17.230                             : en:Chapter 08
  98. 01:05:21.167                             : en:Chapter 09
  99. 01:13:59.309                             : en:Chapter 10
  100. 01:19:52.913                             : en:Chapter 11
  101. 01:31:10.590                             : en:Chapter 12
復制代碼









分享到:  QQ好友和群QQ好友和群
收藏收藏
VIP會員免費任意下載本站所有資源!---點擊開通
回復

使用道具 舉報

級別:榮升主角 Lv.5

注冊時間
2018-2-26
最后登錄
2019-12-14
聽眾
16
收聽
0
主題
0
藍光幣
266 枚
貢獻
0 點
沙發
發表于 2019-10-17 09:11:34 | 只看該作者

這個帖子不回對不起自己!我想我是一天也不能離開中國高清電影網
VIP會員免費任意下載本站所有資源!---點擊開通
回復

使用道具 舉報

懶得打字嘛,點擊右側快捷回復 【右側內容,后臺自定義】
您需要登錄后才可以回帖 登錄 | 立即注冊

本版積分規則

QQ|Archiver|手機版|小黑屋| 中國高清網 |網站地圖

GMT+8, 2019-12-15 02:52 , Processed in 0.130609 second(s), 36 queries .

Powered by HDchina X3.4

Copyright 2017-2019©HDchina.All right reserved

返回頂部 聯系我們
活塞对步行者历史记录