查看: 18|回復: 0
打印 上一主題 下一主題

[劇情片] 其他人/別的人 Other.People.2016.1080p.AMZN.WEBRip.DDP5.1.x264-monkee 4.56GB

[復制鏈接]

 成長值: 3460

級別:資源管理組

注冊時間
2017-10-20
最后登錄
2019-12-14
聽眾
1
收聽
0
主題
88450
藍光幣
71140 枚
貢獻
12812 點
跳轉到指定樓層
樓主
發表于 2019-10-16 15:24:04 | 只看該作者 |只看大圖 回帖獎勵 |倒序瀏覽 |閱讀模式


譯  名 其他人 / 別的人 / 幸福告別(臺)
片  名 Other People
年  代 2016
產  地 美國
類  別 劇情 / 同性 / 家庭
語  言 英語
上映日期 2016-01-21(圣丹斯電影節) / 2016-09-09(美國)
IMDb評分  6.7/10 from 7976 users
IMDb鏈接  https://www.imdb.com/title/tt4158876
豆瓣評分 7.7/10 from 1052 users
豆瓣鏈接 https://movie.douban.com/subject/26677767/
片  長 97分鐘
導  演 克里斯·凱利 Chris Kelly
編  劇 克里斯·凱利 Chris Kelly
主  演 杰西·普萊蒙 Jesse Plemons
       莫莉·香儂 Molly Shannon
       布萊德利·惠特福德 Bradley Whitford
       茉德·阿帕圖 Maude Apatow
       麥迪遜·貝蒂 Madisen Beaty
       黛布·海特 Deb Hiett
       伊萊·巴爾加斯 Eli Vargas
       瓊·斯奎布 June Squibb
       保羅·杜利 Paul Dooley
       凱爾·萊恩 Kyle Lane
       馬特·沃爾什 Matt Walsh
       凱瑞·肯妮 Kerri Kenney
       寶拉·佩爾 Paula Pell
       凱文·多爾夫 Kevin Dorff
       索菲亞·貝爾利 Sophia Bairley


標  簽 美國 | 家庭 | 同性 | 劇情 | 2016 | LGBT | 同志 | 喜劇

簡  介  

  為了照顧患癌的母親,喜劇作家戴維搬回父母那里。這一年,母親的健康每況愈下,父親仍無法接受他的性取向,丟了工作,沒了男友,過得很糟糕。當厄運降到別人頭上時,總感覺是發生在其他人身上的事,怎料到,當厄運降到我們頭上時,我們就成了其他人眼中的“其他人”。不過,在死亡面前,一切都變得微不足道......

獲獎情況  

  第32屆圣丹斯電影節(2016)
  評審團大獎 劇情片(提名)

  第32屆美國獨立精神獎(2017)
  最佳處女作(提名) 克里斯·凱利
  最佳男主角(提名) 杰西·普萊蒙
  最佳女配角 莫莉·香儂
  最佳處女作劇本(提名) 克里斯·凱利

  第15屆華盛頓影評人協會獎(2016)
  最佳女配角(提名) 莫莉·香儂
  1. Video
  2. ID                                       : 1
  3. Format                                   : AVC
  4. Format/Info                              : Advanced Video Codec
  5. Format profile                           : [email protected]
  6. Format settings                          : CABAC / 4 Ref Frames
  7. Format settings, CABAC                   : Yes
  8. Format settings, Reference frames        : 4 frames
  9. Codec ID                                 : V_MPEG4/ISO/AVC
  10. Duration                                 : 1 h 36 min
  11. Bit rate mode                            : Variable
  12. Bit rate                                 : 6 111 kb/s
  13. Maximum bit rate                         : 15.0 Mb/s
  14. Width                                    : 1 920 pixels
  15. Height                                   : 1 040 pixels
  16. Display aspect ratio                     : 1.85:1
  17. Frame rate mode                          : Constant
  18. Frame rate                               : 23.976 (24000/1001) FPS
  19. Color space                              : YUV
  20. Chroma subsampling                       : 4:2:0
  21. Bit depth                                : 8 bits
  22. Scan type                                : Progressive
  23. Bits/(Pixel*Frame)                       : 0.128
  24. Stream size                              : 4.13 GiB (90%)
  25. Title                                    : Other People bB01LWADUONB b1080pB
  26. Writing library                          : x264 core 148 r2623 d5b2374
  27. Encoding settings                        : cabac=1 / ref=4 / deblock=1:-1:-1 / analyse=0x3:0x133 / me=umh / subme=9 / psy=1 / psy_rd=1.00:0.15 / mixed_ref=1 / me_range=24 / chroma_me=1 / trellis=2 / 8x8dct=1 / cqm=0 / deadzone=21,11 / fast_pskip=1 / chroma_qp_offset=-3 / threads=32 / lookahead_threads=5 / sliced_threads=0 / nr=150 / decimate=1 / interlaced=0 / bluray_compat=0 / constrained_intra=0 / bframes=8 / b_pyramid=2 / b_adapt=2 / b_bias=0 / direct=3 / weightb=1 / open_gop=0 / weightp=2 / keyint=120 / keyint_min=61 / scenecut=0 / intra_refresh=0 / rc_lookahead=120 / rc=crf / mbtree=1 / crf=18.0 / qcomp=0.60 / qpmin=0 / qpmax=69 / qpstep=4 / vbv_maxrate=15000 / vbv_bufsize=31250 / crf_max=0.0 / nal_hrd=vbr / filler=0 / ip_ratio=1.40 / aq=3:1.00
  28. Default                                  : Yes
  29. Forced                                   : No
  30. Color range                              : Limited
  31. Color primaries                          : BT.709
  32. Transfer characteristics                 : BT.709
  33. Matrix coefficients                      : BT.709

  34. Audio
  35. ID                                       : 2
  36. Format                                   : E-AC-3
  37. Format/Info                              : Enhanced AC-3
  38. Commercial name                          : Dolby Digital Plus
  39. Codec ID                                 : A_EAC3
  40. Duration                                 : 1 h 36 min
  41. Bit rate mode                            : Constant
  42. Bit rate                                 : 640 kb/s
  43. Channel(s)                               : 6 channels
  44. Channel layout                           : L R C LFE Ls Rs
  45. Sampling rate                            : 48.0 kHz
  46. Frame rate                               : 31.250 FPS (1536 SPF)
  47. Compression mode                         : Lossy
  48. Stream size                              : 443 MiB (9%)
  49. Title                                    : English
  50. Language                                 : English
  51. Service kind                             : Complete Main
  52. Default                                  : Yes
  53. Forced                                   : No

  54. Text
  55. ID                                       : 3
  56. Format                                   : UTF-8
  57. Codec ID                                 : S_TEXT/UTF8
  58. Codec ID/Info                            : UTF-8 Plain Text
  59. Duration                                 : 1 h 35 min
  60. Bit rate                                 : 77 b/s
  61. Count of elements                        : 1613
  62. Stream size                              : 54.1 KiB (0%)
  63. Title                                    : English
  64. Language                                 : English
  65. Default                                  : No
  66. Forced                                   : No
復制代碼









分享到:  QQ好友和群QQ好友和群
收藏收藏
VIP會員免費任意下載本站所有資源!---點擊開通
回復

使用道具 舉報

懶得打字嘛,點擊右側快捷回復 【右側內容,后臺自定義】
您需要登錄后才可以回帖 登錄 | 立即注冊

本版積分規則

QQ|Archiver|手機版|小黑屋| 中國高清網 |網站地圖

GMT+8, 2019-12-15 08:36 , Processed in 0.110828 second(s), 36 queries .

Powered by HDchina X3.4

Copyright 2017-2019©HDchina.All right reserved

返回頂部 聯系我們
活塞对步行者历史记录