查看: 17|回復: 0
打印 上一主題 下一主題

[喜劇片] 新郎向后跑/忽然羅羅攣 In.and.Out.1997.1080p.WEBRip.x264-RARBG 1.73GB

[復制鏈接]

 成長值: 3400

級別:資源管理組

注冊時間
2017-10-20
最后登錄
2019-12-9
聽眾
1
收聽
0
主題
88290
藍光幣
69354 枚
貢獻
12652 點
跳轉到指定樓層
樓主
發表于 2019-10-16 15:22:42 | 只看該作者 |只看大圖 回帖獎勵 |倒序瀏覽 |閱讀模式


譯  名 新郎向后跑 / 忽然羅羅攣 / 情難禁 / 來龍去脈 / 非常關系
片  名 In & Out
年  代 1997
產  地 美國
類  別 喜劇
語  言 英語
上映日期 1997-09-19
IMDb評分  6.4/10 from 36671 users
IMDb鏈接  https://www.imdb.com/title/tt0119360
豆瓣評分 6.6/10 from 536 users
豆瓣鏈接 https://movie.douban.com/subject/1294783/
片  長 90 分鐘
導  演 Frank Oz
編  劇 Paul Rudnick
主  演 Kevin Kline
       Joan Cusack
       Tom Selleck
       Matt Dillon
       Bob Newhart


標  簽 喜劇 | 美國 | 同志 | 1997 | gay | 美國電影 | 家庭 | 同性

簡  介  

  霍華德(凱文·克萊恩 Kevin Kline 飾)是一名在高中里任教的老師,一輩子勤勤懇懇的教書育人,獲得了朋友和妹生們的尊重。霍華德和女友艾米麗(瓊·庫薩克 Joan Cusack 飾)的愛情長跑終于要開花結果了,再過不久,他們就將攜手步入婚姻的殿堂,許下相守一生的諾言。
  一天,霍華德在艾米麗家,和他的未婚妻一起觀看奧斯卡頒獎典禮,讓他感到不可思議的是,影帝的殊榮竟然頒發給了他曾經的妹生。深感自豪之余,這位新晉影帝的一番獲獎感言卻將霍華德打落谷底,在成千上萬的觀眾面前,霍華德竟然“被出柜”了。果不其然,艾米麗大怒,霍華德跳進黃河也洗不清冤屈。

獲獎情況  

  第70屆奧斯卡金像獎(1998)
  最佳女配角(提名) 瓊·庫薩克
  1. Video
  2. ID                                       : 1
  3. Format                                   : AVC
  4. Format/Info                              : Advanced Video Codec
  5. Format profile                           : [email protected]
  6. Format settings                          : CABAC / 4 Ref Frames
  7. Format settings, CABAC                   : Yes
  8. Format settings, Reference frames        : 4 frames
  9. Codec ID                                 : avc1
  10. Codec ID/Info                            : Advanced Video Coding
  11. Duration                                 : 1 h 30 min
  12. Bit rate                                 : 2 500 kb/s
  13. Width                                    : 1 920 pixels
  14. Height                                   : 1 080 pixels
  15. Display aspect ratio                     : 16:9
  16. Frame rate mode                          : Constant
  17. Frame rate                               : 23.976 (23976/1000) FPS
  18. Color space                              : YUV
  19. Chroma subsampling                       : 4:2:0
  20. Bit depth                                : 8 bits
  21. Scan type                                : Progressive
  22. Bits/(Pixel*Frame)                       : 0.050
  23. Stream size                              : 1.58 GiB (92%)
  24. Writing library                          : x264 core 152 r2851M ba24899
  25. Encoding settings                        : cabac=1 / ref=4 / deblock=1:-1:-1 / analyse=0x3:0x113 / me=umh / subme=9 / psy=1 / psy_rd=1.00:0.15 / mixed_ref=1 / me_range=24 / chroma_me=1 / trellis=2 / 8x8dct=1 / cqm=0 / deadzone=21,11 / fast_pskip=1 / chroma_qp_offset=-3 / threads=16 / lookahead_threads=4 / sliced_threads=0 / nr=0 / decimate=1 / interlaced=0 / bluray_compat=0 / constrained_intra=0 / bframes=3 / b_pyramid=2 / b_adapt=2 / b_bias=0 / direct=3 / weightb=1 / open_gop=0 / weightp=2 / keyint=250 / keyint_min=25 / scenecut=40 / intra_refresh=0 / rc_lookahead=50 / rc=2pass / mbtree=1 / bitrate=2500 / ratetol=1.0 / qcomp=0.60 / qpmin=0 / qpmax=69 / qpstep=4 / cplxblur=20.0 / qblur=0.5 / vbv_maxrate=31250 / vbv_bufsize=31250 / nal_hrd=none / filler=0 / ip_ratio=1.40 / aq=3:1.00
  26. Encoded date                             : UTC 2019-10-15 20:23:42
  27. Tagged date                              : UTC 2019-10-15 20:23:42
  28. Codec configuration box                  : avcC

  29. Audio
  30. ID                                       : 2
  31. Format                                   : AAC LC
  32. Format/Info                              : Advanced Audio Codec Low Complexity
  33. Codec ID                                 : mp4a-40-2
  34. Duration                                 : 1 h 30 min
  35. Bit rate mode                            : Constant
  36. Bit rate                                 : 224 kb/s
  37. Channel(s)                               : 6 channels
  38. Channel layout                           : C L R Ls Rs LFE
  39. Sampling rate                            : 48.0 kHz
  40. Frame rate                               : 46.875 FPS (1024 SPF)
  41. Compression mode                         : Lossy
  42. Stream size                              : 145 MiB (8%)
  43. Language                                 : English
  44. Default                                  : Yes
  45. Alternate group                          : 1
  46. Encoded date                             : UTC 2019-10-15 20:23:42
  47. Tagged date                              : UTC 2019-10-15 20:23:42
復制代碼









分享到:  QQ好友和群QQ好友和群
收藏收藏
VIP會員免費任意下載本站所有資源!---點擊開通
回復

使用道具 舉報

懶得打字嘛,點擊右側快捷回復 【右側內容,后臺自定義】
您需要登錄后才可以回帖 登錄 | 立即注冊

本版積分規則

QQ|Archiver|手機版|小黑屋| 中國高清網 |網站地圖

GMT+8, 2019-12-9 01:43 , Processed in 0.113499 second(s), 36 queries .

Powered by HDchina X3.4

Copyright 2017-2019©HDchina.All right reserved

返回頂部 聯系我們
活塞对步行者历史记录