查看: 39|回復: 0
打印 上一主題 下一主題

[劇情片] 祖兒小子/好人喬 A.Guy.Named.Joe.1943.1080p.AMZN.WEBRip.AAC2.0.x264-SbR 11.99GB

[復制鏈接]

 成長值: 5450

級別:資源管理組

注冊時間
2017-10-20
最后登錄
2020-5-27
聽眾
1
收聽
0
主題
96220
藍光幣
151631 枚
貢獻
20598 點
跳轉到指定樓層
樓主
發表于 2019-10-16 15:21:36 | 只看該作者 |只看大圖 回帖獎勵 |倒序瀏覽 |閱讀模式


譯  名 祖兒小子 / 好人喬 / 比翼鳥
片  名 A Guy Named Joe
年  代 1943
產  地 美國
類  別 劇情 / 愛情 / 戰爭 / 奇幻
語  言 英語
上映日期 1943-12-24
IMDb評分  7.0/10 from 2055 users
IMDb鏈接  https://www.imdb.com/title/tt0035959
豆瓣評分 0/10 from 0 users
豆瓣鏈接 https://movie.douban.com/subject/1295523/
片  長 120 分鐘
導  演 維克多·弗萊明 Victor Fleming
編  劇 Chandler Sprague / Forenzo Semple, Jr.多爾頓 特朗博 (Dalton Trumbo) / David Boehm
主  演 Spencer Tracy
       Irene Dunne
       Van Johnson
       Lionel Barrymore


標  簽 美國 | 美國電影 | 愛情 | 黑白 | D維克多·弗萊明 | VictorFleming | 1940s | 戰爭

簡  介  

  影片描寫了二戰期間,一群以皮特Sandidge為代表的英國B-52轟炸機飛行員們的戰斗、愛情生活...

獲獎情況  

  第17屆奧斯卡金像獎(1945)
  最佳原創故事(提名) 錢德勒·斯普拉格 / 大衛·貝姆
  1. Video
  2. ID                                       : 1
  3. Format                                   : AVC
  4. Format/Info                              : Advanced Video Codec
  5. Format profile                           : [email protected]
  6. Format settings                          : CABAC / 4 Ref Frames
  7. Format settings, CABAC                   : Yes
  8. Format settings, Reference frames        : 4 frames
  9. Codec ID                                 : V_MPEG4/ISO/AVC
  10. Duration                                 : 1 h 59 min
  11. Bit rate mode                            : Variable
  12. Bit rate                                 : 14.2 Mb/s
  13. Maximum bit rate                         : 15.0 Mb/s
  14. Width                                    : 1 440 pixels
  15. Height                                   : 1 080 pixels
  16. Display aspect ratio                     : 4:3
  17. Frame rate mode                          : Constant
  18. Frame rate                               : 23.976 (24000/1001) FPS
  19. Color space                              : YUV
  20. Chroma subsampling                       : 4:2:0
  21. Bit depth                                : 8 bits
  22. Scan type                                : Progressive
  23. Bits/(Pixel*Frame)                       : 0.380
  24. Stream size                              : 11.9 GiB (99%)
  25. Writing library                          : x264 core 148 r2623 d5b2374
  26. Encoding settings                        : cabac=1 / ref=4 / deblock=1:-1:-1 / analyse=0x3:0x133 / me=umh / subme=9 / psy=1 / psy_rd=1.00:0.15 / mixed_ref=1 / me_range=24 / chroma_me=1 / trellis=2 / 8x8dct=1 / cqm=0 / deadzone=21,11 / fast_pskip=1 / chroma_qp_offset=-3 / threads=34 / lookahead_threads=5 / sliced_threads=0 / nr=150 / decimate=1 / interlaced=0 / bluray_compat=0 / constrained_intra=0 / bframes=8 / b_pyramid=2 / b_adapt=2 / b_bias=0 / direct=3 / weightb=1 / open_gop=0 / weightp=2 / keyint=120 / keyint_min=61 / scenecut=0 / intra_refresh=0 / rc_lookahead=120 / rc=crf / mbtree=1 / crf=18.0 / qcomp=0.60 / qpmin=0 / qpmax=69 / qpstep=4 / vbv_maxrate=15000 / vbv_bufsize=31250 / crf_max=0.0 / nal_hrd=vbr / filler=0 / ip_ratio=1.40 / aq=3:1.00
  27. Language                                 : English
  28. Default                                  : Yes
  29. Forced                                   : No
  30. Color range                              : Limited
  31. Color primaries                          : BT.709
  32. Transfer characteristics                 : BT.709
  33. Matrix coefficients                      : BT.709

  34. Audio
  35. ID                                       : 2
  36. Format                                   : AAC LC
  37. Format/Info                              : Advanced Audio Codec Low Complexity
  38. Codec ID                                 : A_AAC-2
  39. Duration                                 : 1 h 59 min
  40. Bit rate                                 : 125 kb/s
  41. Channel(s)                               : 2 channels
  42. Channel layout                           : L R
  43. Sampling rate                            : 48.0 kHz
  44. Frame rate                               : 46.875 FPS (1024 SPF)
  45. Compression mode                         : Lossy
  46. Stream size                              : 108 MiB (1%)
  47. Language                                 : English
  48. Default                                  : Yes
  49. Forced                                   : No
復制代碼








分享到:  QQ好友和群QQ好友和群
收藏收藏
回復

使用道具 舉報

懶得打字嘛,點擊右側快捷回復 【右側內容,后臺自定義】
您需要登錄后才可以回帖 登錄 | 立即注冊

本版積分規則

Archiver|手機版|小黑屋| 中國高清網 ( ICP備17007870號-2 ) |網站地圖 

GMT+8, 2020-5-27 21:15 , Processed in 0.104754 second(s), 37 queries .

Powered by HDchina X3.4

Copyright 2017-2019©HDchina.All right reserved

返回頂部 聯系我們
活塞对步行者历史记录