查看: 20|回復: 0
打印 上一主題 下一主題

[劇情片] 絕代香妃 A.Life.of.Her.Own.1950.1080p.AMZN.WEBRip.DD2.0.x264-SbR 10.79GB

[復制鏈接]

 成長值: 3460

級別:資源管理組

注冊時間
2017-10-20
最后登錄
2019-12-14
聽眾
1
收聽
0
主題
88450
藍光幣
71146 枚
貢獻
12812 點
跳轉到指定樓層
樓主
發表于 2019-10-16 15:20:06 | 只看該作者 |只看大圖 回帖獎勵 |倒序瀏覽 |閱讀模式


譯  名 絕代香妃
片  名 A Life of Her Own
年  代 1950
產  地 美國
類  別 劇情
語  言 英語
上映日期 1950
IMDb評分  6.2/10 from 766 users
IMDb鏈接  https://www.imdb.com/title/tt0042677
豆瓣評分 0/10 from 0 users
豆瓣鏈接 https://movie.douban.com/subject/5066140/
片  長 108 分鐘
導  演 George Cukor
編  劇 Isobel Lennart
主  演 拉娜·特納 Lana Turner
       雷·米蘭德 Ray Milland


標  簽 美國 | RayMilland | Lana_Turner | 1950s | 1950 | (待下 | 喬治·庫克 | Tom_Ewell

簡  介  

  暫無相關劇情介紹

獲獎情況  

  第8屆金球獎(1951)
  電影類 最佳原創配樂(提名) 布羅尼斯洛·卡帕
  1. Video
  2. ID                                       : 1
  3. Format                                   : AVC
  4. Format/Info                              : Advanced Video Codec
  5. Format profile                           : [email protected]
  6. Format settings                          : CABAC / 4 Ref Frames
  7. Format settings, CABAC                   : Yes
  8. Format settings, Reference frames        : 4 frames
  9. Codec ID                                 : V_MPEG4/ISO/AVC
  10. Duration                                 : 1 h 48 min
  11. Bit rate mode                            : Variable
  12. Bit rate                                 : 14.1 Mb/s
  13. Maximum bit rate                         : 15.0 Mb/s
  14. Width                                    : 1 440 pixels
  15. Height                                   : 1 080 pixels
  16. Display aspect ratio                     : 4:3
  17. Frame rate mode                          : Constant
  18. Frame rate                               : 23.976 (24000/1001) FPS
  19. Color space                              : YUV
  20. Chroma subsampling                       : 4:2:0
  21. Bit depth                                : 8 bits
  22. Scan type                                : Progressive
  23. Bits/(Pixel*Frame)                       : 0.377
  24. Stream size                              : 10.6 GiB (99%)
  25. Writing library                          : x264 core 148 r2623 d5b2374
  26. Encoding settings                        : cabac=1 / ref=4 / deblock=1:-1:-1 / analyse=0x3:0x133 / me=umh / subme=9 / psy=1 / psy_rd=1.00:0.15 / mixed_ref=1 / me_range=24 / chroma_me=1 / trellis=2 / 8x8dct=1 / cqm=0 / deadzone=21,11 / fast_pskip=1 / chroma_qp_offset=-3 / threads=34 / lookahead_threads=5 / sliced_threads=0 / nr=150 / decimate=1 / interlaced=0 / bluray_compat=0 / constrained_intra=0 / bframes=8 / b_pyramid=2 / b_adapt=2 / b_bias=0 / direct=3 / weightb=1 / open_gop=0 / weightp=2 / keyint=120 / keyint_min=61 / scenecut=0 / intra_refresh=0 / rc_lookahead=120 / rc=crf / mbtree=1 / crf=18.0 / qcomp=0.60 / qpmin=0 / qpmax=69 / qpstep=4 / vbv_maxrate=15000 / vbv_bufsize=31250 / crf_max=0.0 / nal_hrd=vbr / filler=0 / ip_ratio=1.40 / aq=3:1.00
  27. Language                                 : English
  28. Default                                  : Yes
  29. Forced                                   : No
  30. Color range                              : Limited
  31. Color primaries                          : BT.709
  32. Transfer characteristics                 : BT.709
  33. Matrix coefficients                      : BT.709

  34. Audio
  35. ID                                       : 2
  36. Format                                   : AC-3
  37. Format/Info                              : Audio Coding 3
  38. Commercial name                          : Dolby Digital
  39. Codec ID                                 : A_AC3
  40. Duration                                 : 1 h 48 min
  41. Bit rate mode                            : Constant
  42. Bit rate                                 : 192 kb/s
  43. Channel(s)                               : 2 channels
  44. Channel layout                           : L R
  45. Sampling rate                            : 48.0 kHz
  46. Frame rate                               : 31.250 FPS (1536 SPF)
  47. Bit depth                                : 16 bits
  48. Compression mode                         : Lossy
  49. Stream size                              : 149 MiB (1%)
  50. Language                                 : English
  51. Service kind                             : Complete Main
  52. Default                                  : Yes
  53. Forced                                   : No

  54. Text #1
  55. ID                                       : 3
  56. Format                                   : UTF-8
  57. Codec ID                                 : S_TEXT/UTF8
  58. Codec ID/Info                            : UTF-8 Plain Text
  59. Duration                                 : 1 h 45 min
  60. Bit rate                                 : 78 b/s
  61. Count of elements                        : 1846
  62. Stream size                              : 60.7 KiB (0%)
  63. Language                                 : English
  64. Default                                  : No
  65. Forced                                   : No

  66. Text #2
  67. ID                                       : 4
  68. Format                                   : UTF-8
  69. Codec ID                                 : S_TEXT/UTF8
  70. Codec ID/Info                            : UTF-8 Plain Text
  71. Duration                                 : 1 h 46 min
  72. Bit rate                                 : 78 b/s
  73. Count of elements                        : 1874
  74. Stream size                              : 61.3 KiB (0%)
  75. Title                                    : SDH
  76. Language                                 : English
  77. Default                                  : No
  78. Forced                                   : No
復制代碼









分享到:  QQ好友和群QQ好友和群
收藏收藏
VIP會員免費任意下載本站所有資源!---點擊開通
回復

使用道具 舉報

懶得打字嘛,點擊右側快捷回復 【右側內容,后臺自定義】
您需要登錄后才可以回帖 登錄 | 立即注冊

本版積分規則

QQ|Archiver|手機版|小黑屋| 中國高清網 |網站地圖

GMT+8, 2019-12-15 09:19 , Processed in 0.106588 second(s), 36 queries .

Powered by HDchina X3.4

Copyright 2017-2019©HDchina.All right reserved

返回頂部 聯系我們
活塞对步行者历史记录