查看: 27|回復: 0
打印 上一主題 下一主題

[10bit.SDR] 美國黑幫/犯罪帝國 American.Gangster.2007.EXTENDED.2160p.BluRay.x265.10bit.SDR.DTS-X.7.1-SWTYBLZ 70.09GB

[復制鏈接]

 成長值: 2850

級別:資源管理組

注冊時間
2017-10-20
最后登錄
2019-10-17
聽眾
1
收聽
0
主題
84967
藍光幣
55453 枚
貢獻
9324 點
跳轉到指定樓層
樓主
發表于 前天 22:21 | 只看該作者 |只看大圖 回帖獎勵 |倒序瀏覽 |閱讀模式


譯  名 美國黑幫 / 犯罪帝國 / 美國土匪
片  名 American Gangster
年  代 2007
產  地 美國
類  別 劇情 / 犯罪
語  言 英語
上映日期 2007-11-02(美國)
IMDb評分  7.8/10 from 371827 users
IMDb鏈接  https://www.imdb.com/title/tt0765429
豆瓣評分 7.9/10 from 37813 users
豆瓣鏈接 https://movie.douban.com/subject/1578503/
片  長 157 分鐘
導  演 Ridley Scott
編  劇 Steven Zaillian / Mark Jacobson
主  演 丹澤爾·華盛頓 Denzel Washington
       羅素·克勞 Russell Crowe
       切瓦特·埃加福特 Chiwetel Ejiofor
       喬什·布洛林 Josh Brolin
       里瑪莉·娜妲 Lymari Nadal
       泰德·拉文 Ted Levine
       羅杰·格午埃文·史密斯 Roger Guenveur Smith
       約翰·浩克斯 John Hawkes
       RZA
       尤爾·瓦斯克斯 Yul Vazquez
       Malcolm Goodwin
       露比·迪 Ruby Dee
       Ruben Santiago-Hudson
       卡拉·古奇諾 Carla Gugino
       Skyler Fortgang


標  簽 黑幫 | 美國 | 犯罪 | DenzelWashington | 美國黑幫 | 美國電影 | RussellCrowe | 2007

簡  介  

  上世紀70年代,哈萊姆黑人區,弗蘭克?盧卡斯(丹澤爾?華盛頓 飾)是黑幫老大約翰遜的司機。約翰遜暴斃后,弗蘭克充分利用了這個來之不易的機會,將地下世界的所有權利分配進行了重組,成功上位,接手大佬事業,掌控了毒品交易大權。期間他遠赴東南亞金三角走私高純度海洛因,張羅自己的家族兄弟,集結了一幫為他賣命的手下,一股黑暗勢力正在興起。
  另一邊,警察里奇?羅伯茨(盧塞爾?克勞 飾)家庭破裂,與主流社會格格不入,整天以一副邋遢鬼模樣流連于街頭。他慢慢覺察出毒品圈內的風起云涌,,并展開了秘密調查。
  隨著調查的深入,羅伯茨和盧卡斯之間的距離越來越短,兩個氣質相近,惺惺相惜的男人,不可避免地進行正面對決……

獲獎情況  

  第80屆奧斯卡金像獎(2008)
  最佳女配角(提名) 露比·迪
  最佳藝術指導(提名) 阿瑟·馬克斯 / Beth A. Rubino

  第65屆金球獎(2008)
  電影類 最佳劇情片(提名)
  電影類 最佳導演(提名) 雷德利·斯科特
  電影類 劇情片最佳男主角(提名) 丹澤爾·華盛頓

  第61屆英國電影妹院獎(2008)
  電影獎 最佳影片(提名) 雷德利·斯科特 / 布萊恩·格雷澤
  電影獎 最佳原創劇本(提名) 斯蒂文·澤里安
  電影獎 最佳攝影(提名) 哈里斯·薩維德斯
  電影獎 最佳剪輯(提名) 彼得羅·斯卡利亞
  電影獎 最佳原創音樂(提名) 馬克·斯特雷滕菲爾德

  第17屆MTV電影獎(2008)
  MTV電影獎 最佳男演員(提名) 丹澤爾·華盛頓
  MTV電影獎 最佳反派(提名) 丹澤爾·華盛頓
  1. Video
  2. ID                                       : 1
  3. Format                                   : HEVC
  4. Format/Info                              : High Efficiency Video Coding
  5. Format profile                           : Main [email protected]@High
  6. Codec ID                                 : V_MPEGH/ISO/HEVC
  7. Duration                                 : 2 h 55 min
  8. Bit rate                                 : 50.4 Mb/s
  9. Width                                    : 3 840 pixels
  10. Height                                   : 2 076 pixels
  11. Display aspect ratio                     : 1.85:1
  12. Frame rate mode                          : Constant
  13. Frame rate                               : 23.976 (24000/1001) FPS
  14. Color space                              : YUV
  15. Chroma subsampling                       : 4:2:0
  16. Bit depth                                : 10 bits
  17. Bits/(Pixel*Frame)                       : 0.264
  18. Stream size                              : 61.9 GiB (89%)
  19. Title                                    : American.Gangster.2007.EXTENDED.2160p.BluRay.x265.10bit.SDR.DTS-X.7.1-SWTYBLZ
  20. Writing library                          : x265 3.0ed72af837053:[Windows][GCC 8.2.0][64 bit] 10bit
  21. Encoding settings                        : cpuid=1111039 / frame-threads=16 / numa-pools=44,44 / wpp / no-pmode / no-pme / no-psnr / no-ssim / log-level=2 / input-csp=1 / input-res=3840x2076 / interlace=0 / total-frames=252890 / level-idc=51 / high-tier=1 / uhd-bd=0 / ref=3 / no-allow-non-conformance / repeat-headers / annexb / aud / hrd / info / hash=0 / no-temporal-layers / no-open-gop / min-keyint=1 / keyint=24 / gop-lookahead=0 / bframes=4 / b-adapt=2 / b-pyramid / bframe-bias=0 / rc-lookahead=25 / lookahead-slices=4 / scenecut=40 / radl=0 / no-splice / no-intra-refresh / ctu=64 / min-cu-size=8 / no-rect / no-amp / max-tu-size=32 / tu-inter-depth=1 / tu-intra-depth=1 / limit-tu=0 / rdoq-level=0 / dynamic-rd=0.00 / no-ssim-rd / signhide / no-tskip / nr-intra=0 / nr-inter=0 / no-constrained-intra / strong-intra-smoothing / max-merge=2 / limit-refs=3 / no-limit-modes / me=1 / subme=2 / merange=57 / temporal-mvp / weightp / no-weightb / no-analyze-src-pics / deblock=0:0 / no-sao / no-sao-non-deblock / rd=3 / no-early-skip / rskip / no-fast-intra / no-tskip-fast / no-cu-lossless / no-b-intra / no-splitrd-skip / rdpenalty=0 / psy-rd=2.00 / psy-rdoq=0.00 / no-rd-refine / no-lossless / cbqpoffs=0 / crqpoffs=0 / rc=crf / crf=22.0 / qcomp=0.60 / qpstep=4 / stats-write=0 / stats-read=0 / vbv-maxrate=160000 / vbv-bufsize=160000 / vbv-init=0.9 / crf-max=0.0 / crf-min=0.0 / ipratio=1.40 / pbratio=1.30 / aq-mode=1 / aq-strength=1.00 / cutree / zone-count=0 / no-strict-cbr / qg-size=32 / no-rc-grain / qpmax=69 / qpmin=0 / no-const-vbv / sar=1 / overscan=0 / videoformat=5 / range=0 / colorprim=2 / transfer=2 / colormatrix=2 / chromaloc=0 / display-window=0 / max-cll=0,0 / min-luma=0 / max-luma=1023 / log2-max-poc-lsb=8 / vui-timing-info / vui-hrd-info / slices=1 / opt-qp-pps / opt-ref-list-length-pps / no-multi-pass-opt-rps / scenecut-bias=0.05 / no-opt-cu-delta-qp / no-aq-motion / no-hdr / no-hdr-opt / no-dhdr10-opt / no-idr-recovery-sei / analysis-reuse-level=5 / scale-factor=0 / refine-intra=0 / refine-inter=0 / refine-mv=0 / refine-ctu-distortion=0 / no-limit-sao / ctu-info=0 / no-lowpass-dct / refine-analysis-type=0 / copy-pic=1 / max-ausize-factor=1.0 / no-dynamic-refine / no-single-sei / no-hevc-aq / qp-adaptation-range=1.00
  22. Default                                  : Yes
  23. Forced                                   : No

  24. Audio #1
  25. ID                                       : 2
  26. Format                                   : DTS XLL X
  27. Format/Info                              : Digital Theater Systems
  28. Commercial name                          : DTS-HD Master Audio
  29. Codec ID                                 : A_DTS
  30. Duration                                 : 2 h 55 min
  31. Bit rate mode                            : Variable
  32. Bit rate                                 : 5 844 kb/s
  33. Channel(s)                               : 8 channels
  34. Channel(s)_Original                      : Object Based
  35. Channel layout                           : Object Based
  36. Sampling rate                            : 48.0 kHz
  37. Frame rate                               : 93.750 FPS (512 SPF)
  38. Bit depth                                : 24 bits
  39. Stream size                              : 7.18 GiB (10%)
  40. Title                                    : American.Gangster.2007.EXTENDED.2160p.BluRay.x265.10bit.SDR.DTS-X.7.1-SWTYBLZ
  41. Language                                 : English
  42. Default                                  : Yes
  43. Forced                                   : No

  44. Audio #2
  45. ID                                       : 3
  46. Format                                   : AC-3
  47. Format/Info                              : Audio Coding 3
  48. Commercial name                          : Dolby Digital
  49. Codec ID                                 : A_AC3
  50. Duration                                 : 2 h 55 min
  51. Bit rate mode                            : Constant
  52. Bit rate                                 : 640 kb/s
  53. Channel(s)                               : 6 channels
  54. Channel layout                           : L R C LFE Ls Rs
  55. Sampling rate                            : 48.0 kHz
  56. Frame rate                               : 31.250 FPS (1536 SPF)
  57. Bit depth                                : 16 bits
  58. Compression mode                         : Lossy
  59. Stream size                              : 805 MiB (1%)
  60. Title                                    : American.Gangster.2007.EXTENDED.2160p.BluRay.x265.10bit.SDR.DTS-X.7.1-SWTYBLZ
  61. Language                                 : English
  62. Service kind                             : Complete Main
  63. Default                                  : No
  64. Forced                                   : No

  65. Text #1
  66. ID                                       : 4
  67. Format                                   : UTF-8
  68. Codec ID                                 : S_TEXT/UTF8
  69. Codec ID/Info                            : UTF-8 Plain Text
  70. Duration                                 : 2 h 46 min
  71. Bit rate                                 : 69 b/s
  72. Count of elements                        : 2627
  73. Stream size                              : 84.0 KiB (0%)
  74. Title                                    : English-SRT
  75. Language                                 : English
  76. Default                                  : Yes
  77. Forced                                   : No

  78. Text #2
  79. ID                                       : 5
  80. Format                                   : PGS
  81. Muxing mode                              : zlib
  82. Codec ID                                 : S_HDMV/PGS
  83. Codec ID/Info                            : Picture based subtitle format used on BDs/HD-DVDs
  84. Duration                                 : 2 h 47 min
  85. Bit rate                                 : 41.2 kb/s
  86. Count of elements                        : 5600
  87. Stream size                              : 49.4 MiB (0%)
  88. Title                                    : English-PGS
  89. Language                                 : English
  90. Default                                  : No
  91. Forced                                   : No

  92. Text #3
  93. ID                                       : 6
  94. Format                                   : PGS
  95. Muxing mode                              : zlib
  96. Codec ID                                 : S_HDMV/PGS
  97. Codec ID/Info                            : Picture based subtitle format used on BDs/HD-DVDs
  98. Duration                                 : 2 h 46 min
  99. Bit rate                                 : 34.0 kb/s
  100. Count of elements                        : 4562
  101. Stream size                              : 40.6 MiB (0%)
  102. Title                                    : Spanish-PGS
  103. Language                                 : Spanish
  104. Default                                  : No
  105. Forced                                   : No

  106. Text #4
  107. ID                                       : 7
  108. Format                                   : PGS
  109. Muxing mode                              : zlib
  110. Codec ID                                 : S_HDMV/PGS
  111. Codec ID/Info                            : Picture based subtitle format used on BDs/HD-DVDs
  112. Duration                                 : 2 h 46 min
  113. Bit rate                                 : 33.6 kb/s
  114. Count of elements                        : 4552
  115. Stream size                              : 40.1 MiB (0%)
  116. Title                                    : French-PGS
  117. Language                                 : French
  118. Default                                  : No
  119. Forced                                   : No

  120. Menu
  121. 00:00:00.000                             : en:Chapter 01
  122. 00:06:48.449                             : en:Chapter 02
  123. 00:14:07.263                             : en:Chapter 03
  124. 00:25:42.707                             : en:Chapter 04
  125. 00:32:19.938                             : en:Chapter 05
  126. 00:37:33.584                             : en:Chapter 06
  127. 00:43:48.876                             : en:Chapter 07
  128. 00:51:25.457                             : en:Chapter 08
  129. 00:57:21.521                             : en:Chapter 09
  130. 01:15:30.651                             : en:Chapter 10
  131. 01:20:53.181                             : en:Chapter 11
  132. 01:29:01.252                             : en:Chapter 12
  133. 01:37:22.169                             : en:Chapter 13
  134. 01:44:01.610                             : en:Chapter 14
  135. 01:55:33.885                             : en:Chapter 15
  136. 02:04:59.116                             : en:Chapter 16
  137. 02:13:00.639                             : en:Chapter 17
  138. 02:20:08.525                             : en:Chapter 18
  139. 02:31:52.603                             : en:Chapter 19
  140. 02:48:01.446                             : en:Chapter 20
復制代碼









本帖隱藏的下載地址需要VIP會員才可瀏覽,您需要升級才可瀏覽,點擊這里升級VIP
分享到:  QQ好友和群QQ好友和群
收藏收藏
VIP會員免費任意下載本站所有資源!---點擊開通
回復

使用道具 舉報

懶得打字嘛,點擊右側快捷回復 【右側內容,后臺自定義】
您需要登錄后才可以回帖 登錄 | 立即注冊

本版積分規則

QQ|Archiver|手機版|小黑屋| 中國高清網 |網站地圖

GMT+8, 2019-10-17 19:33 , Processed in 0.254242 second(s), 38 queries .

Powered by HDchina X3.4

Copyright 2017-2019©HDchina.All right reserved

返回頂部 聯系我們
活塞对步行者历史记录