查看: 70|回復: 2
打印 上一主題 下一主題

[10bit.SDR] 獅子王/獅子王真人版 The.Lion.King.2019.2160p.BluRay.x265.10bit.SDR.DTS-HD.MA.TrueHD.7.1.Atmos-SWTYBLZ 36.41GB

[復制鏈接]

 成長值: 2860

級別:資源管理組

注冊時間
2017-10-20
最后登錄
2019-10-17
聽眾
1
收聽
0
主題
84967
藍光幣
55499 枚
貢獻
9324 點
跳轉到指定樓層
樓主


譯  名 獅子王 / 獅子王真人版 / 獅子王真實版 / 獅子王真獅版
片  名 The Lion King
年  代 2019
產  地 美國
類  別 劇情 / 動畫 / 冒險
語  言 英語 / 科薩語
上映日期 2019-07-12(中國大陸) / 2019-07-19(美國)
IMDb評分  7.1/10 from 104480 users
IMDb鏈接  http://www.imdb.com/title/tt6105098
豆瓣評分 7.4/10 from 196500 users
豆瓣鏈接 https://movie.douban.com/subject/26884354/
片  長 118分鐘
導  演 喬恩·費儒 Jon Favreau
編  劇 杰夫·內拿森 Jeff Nathanson / 布蘭達?查普曼 Brenda Chapman / 艾琳·梅琪 Irene Mecchi / 喬納森·羅伯茨 Jonathan Roberts / 琳達·伍爾芙頓 Linda Woolverton
主  演 唐納德·格洛弗 Donald Glover
       阿爾法·伍達德 Alfre Woodard
       詹姆斯·厄爾·瓊斯 James Earl Jones
       切瓦特·埃加福特 Chiwetel Ejiofor
       科甘-邁克爾·凱 Keegan-Michael Key
       塞斯·羅根 Seth Rogen
       比利·艾希納 Billy Eichner
       碧昂絲·諾爾斯 Beyoncé Knowles
       埃里克·安德烈 Eric André
       弗洛倫絲·卡松巴 Florence Kasumba
       約翰·卡尼 John Kani
       約翰·奧利弗 John Oliver
       艾米·塞德麗絲 Amy Sedaris


標  簽 迪士尼 | 經典 | 動畫 | 童年 | 美國 | 成長 | 2019 | 動物

簡  介  

  非洲大草原上一輪紅日冉冉升起,為高大的乞力馬扎羅山披上層金色的光紗,所有的動物涌向了同一個地方——榮耀石,興奮地等待著一個重大消息的宣布:它們的國王木法沙將迎來自己的新生兒。
  這個新生兒就是小獅子辛巴,它是木法沙的法定接班人、榮耀石未來的國王。
  小獅子王辛巴在眾多熱情的朋友的陪伴下,不但經歷了生命中最光榮的時刻,也遭遇了最艱難的挑戰,最后終于成為了森林之王,也在周而復始生生不息的自然中體會出生命的真義。

獲獎情況  

  第5屆豆瓣電影年度榜單(2018)
  最值得期待的圍語電影(提名)
  1. Video
  2. ID                                       : 1
  3. Format                                   : HEVC
  4. Format/Info                              : High Efficiency Video Coding
  5. Format profile                           : Main [email protected]@High
  6. Codec ID                                 : V_MPEGH/ISO/HEVC
  7. Duration                                 : 1 h 58 min
  8. Bit rate                                 : 34.1 Mb/s
  9. Width                                    : 3 840 pixels
  10. Height                                   : 2 160 pixels
  11. Display aspect ratio                     : 16:9
  12. Frame rate mode                          : Constant
  13. Frame rate                               : 23.976 (24000/1001) FPS
  14. Color space                              : YUV
  15. Chroma subsampling                       : 4:2:0
  16. Bit depth                                : 10 bits
  17. Bits/(Pixel*Frame)                       : 0.171
  18. Stream size                              : 28.2 GiB (78%)
  19. Title                                    : The.Lion.King.2019.2160p.BluRay.x265.10bit.SDR.DTS-HD.MA.TrueHD.7.1.Atmos-SWTYBLZ
  20. Writing library                          : x265 3.0ed72af837053:[Windows][GCC 8.2.0][64 bit] 10bit
  21. Encoding settings                        : cpuid=1111039 / frame-threads=16 / numa-pools=44,44 / wpp / no-pmode / no-pme / no-psnr / no-ssim / log-level=2 / input-csp=1 / input-res=3840x2160 / interlace=0 / total-frames=170099 / level-idc=51 / high-tier=1 / uhd-bd=0 / ref=3 / no-allow-non-conformance / repeat-headers / annexb / aud / hrd / info / hash=0 / no-temporal-layers / no-open-gop / min-keyint=1 / keyint=24 / gop-lookahead=0 / bframes=4 / b-adapt=2 / b-pyramid / bframe-bias=0 / rc-lookahead=25 / lookahead-slices=4 / scenecut=40 / radl=0 / no-splice / no-intra-refresh / ctu=64 / min-cu-size=8 / no-rect / no-amp / max-tu-size=32 / tu-inter-depth=1 / tu-intra-depth=1 / limit-tu=0 / rdoq-level=0 / dynamic-rd=0.00 / no-ssim-rd / signhide / no-tskip / nr-intra=0 / nr-inter=0 / no-constrained-intra / strong-intra-smoothing / max-merge=2 / limit-refs=3 / no-limit-modes / me=1 / subme=2 / merange=57 / temporal-mvp / weightp / no-weightb / no-analyze-src-pics / deblock=0:0 / no-sao / no-sao-non-deblock / rd=3 / no-early-skip / rskip / no-fast-intra / no-tskip-fast / no-cu-lossless / no-b-intra / no-splitrd-skip / rdpenalty=0 / psy-rd=2.00 / psy-rdoq=0.00 / no-rd-refine / no-lossless / cbqpoffs=0 / crqpoffs=0 / rc=crf / crf=16.0 / qcomp=0.60 / qpstep=4 / stats-write=0 / stats-read=0 / vbv-maxrate=160000 / vbv-bufsize=160000 / vbv-init=0.9 / crf-max=0.0 / crf-min=0.0 / ipratio=1.40 / pbratio=1.30 / aq-mode=1 / aq-strength=1.00 / cutree / zone-count=0 / no-strict-cbr / qg-size=32 / no-rc-grain / qpmax=69 / qpmin=0 / no-const-vbv / sar=1 / overscan=0 / videoformat=5 / range=0 / colorprim=2 / transfer=2 / colormatrix=2 / chromaloc=0 / display-window=0 / max-cll=0,0 / min-luma=0 / max-luma=1023 / log2-max-poc-lsb=8 / vui-timing-info / vui-hrd-info / slices=1 / opt-qp-pps / opt-ref-list-length-pps / no-multi-pass-opt-rps / scenecut-bias=0.05 / no-opt-cu-delta-qp / no-aq-motion / no-hdr / no-hdr-opt / no-dhdr10-opt / no-idr-recovery-sei / analysis-reuse-level=5 / scale-factor=0 / refine-intra=0 / refine-inter=0 / refine-mv=0 / refine-ctu-distortion=0 / no-limit-sao / ctu-info=0 / no-lowpass-dct / refine-analysis-type=0 / copy-pic=1 / max-ausize-factor=1.0 / no-dynamic-refine / no-single-sei / no-hevc-aq / qp-adaptation-range=1.00
  22. Default                                  : Yes
  23. Forced                                   : No

  24. Audio #1
  25. ID                                       : 2
  26. Format                                   : MLP FBA 16-ch
  27. Format/Info                              : Meridian Lossless Packing FBA with 16-channel presentation
  28. Commercial name                          : Dolby TrueHD with Dolby Atmos
  29. Codec ID                                 : A_TRUEHD
  30. Duration                                 : 1 h 58 min
  31. Bit rate mode                            : Variable
  32. Bit rate                                 : 4 929 kb/s
  33. Maximum bit rate                         : 7 332 kb/s
  34. Channel(s)                               : 8 channels
  35. Channel layout                           : L R C LFE Ls Rs Lb Rb
  36. Sampling rate                            : 48.0 kHz
  37. Frame rate                               : 1 200.000 FPS (40 SPF)
  38. Compression mode                         : Lossless
  39. Stream size                              : 4.07 GiB (11%)
  40. Title                                    : The.Lion.King.2019.2160p.BluRay.x265.10bit.SDR.DTS-HD.MA.TrueHD.7.1.Atmos-SWTYBLZ
  41. Language                                 : English
  42. Default                                  : Yes
  43. Forced                                   : No
  44. Number of dynamic objects                : 13
  45. Bed channel count                        : 1 channel
  46. Bed channel configuration                : LFE

  47. Audio #2
  48. ID                                       : 3
  49. Format                                   : DTS XLL
  50. Format/Info                              : Digital Theater Systems
  51. Commercial name                          : DTS-HD Master Audio
  52. Codec ID                                 : A_DTS
  53. Duration                                 : 1 h 58 min
  54. Bit rate mode                            : Variable
  55. Bit rate                                 : 4 033 kb/s
  56. Channel(s)                               : 8 channels
  57. Channel layout                           : C L R LFE Lb Rb Lss Rss
  58. Sampling rate                            : 48.0 kHz
  59. Frame rate                               : 93.750 FPS (512 SPF)
  60. Bit depth                                : 24 bits
  61. Compression mode                         : Lossless
  62. Stream size                              : 3.33 GiB (9%)
  63. Title                                    : The.Lion.King.2019.2160p.BluRay.x265.10bit.SDR.DTS-HD.MA.TrueHD.7.1.Atmos-SWTYBLZ
  64. Language                                 : English
  65. Default                                  : No
  66. Forced                                   : No

  67. Audio #3
  68. ID                                       : 4
  69. Format                                   : AC-3
  70. Format/Info                              : Audio Coding 3
  71. Commercial name                          : Dolby Digital
  72. Codec ID                                 : A_AC3
  73. Duration                                 : 1 h 58 min
  74. Bit rate mode                            : Constant
  75. Bit rate                                 : 640 kb/s
  76. Channel(s)                               : 6 channels
  77. Channel layout                           : L R C LFE Ls Rs
  78. Sampling rate                            : 48.0 kHz
  79. Frame rate                               : 31.250 FPS (1536 SPF)
  80. Bit depth                                : 16 bits
  81. Compression mode                         : Lossy
  82. Stream size                              : 541 MiB (1%)
  83. Title                                    : The.Lion.King.2019.2160p.BluRay.x265.10bit.SDR.DTS-HD.MA.TrueHD.7.1.Atmos-SWTYBLZ
  84. Language                                 : English
  85. Service kind                             : Complete Main
  86. Default                                  : No
  87. Forced                                   : No

  88. Text #1
  89. ID                                       : 5
  90. Format                                   : UTF-8
  91. Codec ID                                 : S_TEXT/UTF8
  92. Codec ID/Info                            : UTF-8 Plain Text
  93. Duration                                 : 1 h 50 min
  94. Bit rate                                 : 49 b/s
  95. Count of elements                        : 1547
  96. Stream size                              : 40.0 KiB (0%)
  97. Title                                    : English-SRT
  98. Language                                 : English
  99. Default                                  : Yes
  100. Forced                                   : No

  101. Text #2
  102. ID                                       : 6
  103. Format                                   : UTF-8
  104. Codec ID                                 : S_TEXT/UTF8
  105. Codec ID/Info                            : UTF-8 Plain Text
  106. Duration                                 : 1 h 52 min
  107. Bit rate                                 : 55 b/s
  108. Count of elements                        : 1738
  109. Stream size                              : 45.1 KiB (0%)
  110. Title                                    : English-SDH-SRT
  111. Language                                 : English
  112. Default                                  : No
  113. Forced                                   : No

  114. Text #3
  115. ID                                       : 7
  116. Format                                   : PGS
  117. Muxing mode                              : zlib
  118. Codec ID                                 : S_HDMV/PGS
  119. Codec ID/Info                            : Picture based subtitle format used on BDs/HD-DVDs
  120. Duration                                 : 1 h 52 min
  121. Bit rate                                 : 37.3 kb/s
  122. Count of elements                        : 3420
  123. Stream size                              : 29.8 MiB (0%)
  124. Title                                    : English-PGS
  125. Language                                 : English
  126. Default                                  : No
  127. Forced                                   : No

  128. Text #4
  129. ID                                       : 8
  130. Format                                   : PGS
  131. Muxing mode                              : zlib
  132. Codec ID                                 : S_HDMV/PGS
  133. Codec ID/Info                            : Picture based subtitle format used on BDs/HD-DVDs
  134. Duration                                 : 1 h 56 min
  135. Bit rate                                 : 31.4 kb/s
  136. Count of elements                        : 2788
  137. Stream size                              : 26.2 MiB (0%)
  138. Title                                    : French-PGS
  139. Language                                 : French
  140. Default                                  : No
  141. Forced                                   : No

  142. Text #5
  143. ID                                       : 9
  144. Format                                   : PGS
  145. Muxing mode                              : zlib
  146. Codec ID                                 : S_HDMV/PGS
  147. Codec ID/Info                            : Picture based subtitle format used on BDs/HD-DVDs
  148. Duration                                 : 1 h 55 min
  149. Bit rate                                 : 25.9 kb/s
  150. Count of elements                        : 2556
  151. Stream size                              : 21.5 MiB (0%)
  152. Title                                    : French-PGS
  153. Language                                 : French
  154. Default                                  : No
  155. Forced                                   : No

  156. Text #6
  157. ID                                       : 10
  158. Format                                   : PGS
  159. Muxing mode                              : zlib
  160. Codec ID                                 : S_HDMV/PGS
  161. Codec ID/Info                            : Picture based subtitle format used on BDs/HD-DVDs
  162. Duration                                 : 1 h 55 min
  163. Bit rate                                 : 28.9 kb/s
  164. Count of elements                        : 2850
  165. Stream size                              : 24.0 MiB (0%)
  166. Title                                    : German-PGS
  167. Language                                 : German
  168. Default                                  : No
  169. Forced                                   : No

  170. Text #7
  171. ID                                       : 11
  172. Format                                   : PGS
  173. Muxing mode                              : zlib
  174. Codec ID                                 : S_HDMV/PGS
  175. Codec ID/Info                            : Picture based subtitle format used on BDs/HD-DVDs
  176. Duration                                 : 1 h 55 min
  177. Bit rate                                 : 28.1 kb/s
  178. Count of elements                        : 2716
  179. Stream size                              : 23.3 MiB (0%)
  180. Title                                    : Italian-PGS
  181. Language                                 : Italian
  182. Default                                  : No
  183. Forced                                   : No

  184. Text #8
  185. ID                                       : 12
  186. Format                                   : PGS
  187. Muxing mode                              : zlib
  188. Codec ID                                 : S_HDMV/PGS
  189. Codec ID/Info                            : Picture based subtitle format used on BDs/HD-DVDs
  190. Duration                                 : 1 h 55 min
  191. Bit rate                                 : 25.9 kb/s
  192. Count of elements                        : 2716
  193. Stream size                              : 21.4 MiB (0%)
  194. Title                                    : Norwegian-PGS
  195. Language                                 : Norwegian
  196. Default                                  : No
  197. Forced                                   : No

  198. Text #9
  199. ID                                       : 13
  200. Format                                   : PGS
  201. Muxing mode                              : zlib
  202. Codec ID                                 : S_HDMV/PGS
  203. Codec ID/Info                            : Picture based subtitle format used on BDs/HD-DVDs
  204. Duration                                 : 1 h 46 min
  205. Bit rate                                 : 32.7 kb/s
  206. Count of elements                        : 2742
  207. Stream size                              : 24.8 MiB (0%)
  208. Title                                    : Spanish-PGS
  209. Language                                 : Spanish
  210. Default                                  : No
  211. Forced                                   : No

  212. Text #10
  213. ID                                       : 14
  214. Format                                   : PGS
  215. Muxing mode                              : zlib
  216. Codec ID                                 : S_HDMV/PGS
  217. Codec ID/Info                            : Picture based subtitle format used on BDs/HD-DVDs
  218. Duration                                 : 1 h 55 min
  219. Bit rate                                 : 24.1 kb/s
  220. Count of elements                        : 1890
  221. Stream size                              : 20.0 MiB (0%)
  222. Title                                    : Swedish-PGS
  223. Language                                 : Swedish
  224. Default                                  : No
  225. Forced                                   : No

  226. Menu
  227. 00:00:00.000                             : en:Chapter 01
  228. 00:04:50.498                             : en:Chapter 02
  229. 00:10:51.067                             : en:Chapter 03
  230. 00:17:47.691                             : en:Chapter 04
  231. 00:23:53.014                             : en:Chapter 05
  232. 00:30:00.131                             : en:Chapter 06
  233. 00:33:05.066                             : en:Chapter 07
  234. 00:37:09.310                             : en:Chapter 08
  235. 00:43:42.911                             : en:Chapter 09
  236. 00:50:47.335                             : en:Chapter 10
  237. 00:55:02.716                             : en:Chapter 11
  238. 00:59:48.459                             : en:Chapter 12
  239. 01:06:27.233                             : en:Chapter 13
  240. 01:14:32.092                             : en:Chapter 14
  241. 01:18:26.410                             : en:Chapter 15
  242. 01:23:07.899                             : en:Chapter 16
  243. 01:28:04.654                             : en:Chapter 17
  244. 01:33:10.876                             : en:Chapter 18
  245. 01:37:13.744                             : en:Chapter 19
  246. 01:44:39.189                             : en:Chapter 20
  247. 01:47:47.335                             : en:Chapter 21
復制代碼









本帖隱藏的下載地址需要VIP會員才可瀏覽,您需要升級才可瀏覽,點擊這里升級VIP
分享到:  QQ好友和群QQ好友和群
收藏收藏
VIP會員免費任意下載本站所有資源!---點擊開通
回復

使用道具 舉報

級別:榮升主角 Lv.5

注冊時間
2018-1-24
最后登錄
2019-10-17
聽眾
13
收聽
0
主題
0
藍光幣
738 枚
貢獻
0 點
沙發
發表于 前天 09:06 | 只看該作者

感謝樓主的無私分享!要想中國高清電影網好 就靠你我他
VIP會員免費任意下載本站所有資源!---點擊開通
回復

使用道具 舉報

級別:初級觀眾 Lv.1

注冊時間
2019-10-8
最后登錄
2019-10-16
聽眾
0
收聽
0
主題
0
藍光幣
0 枚
貢獻
0 點
板凳
發表于 前天 10:24 | 只看該作者
我要下載!!要是有中文對白就更好了
VIP會員免費任意下載本站所有資源!---點擊開通
回復

使用道具 舉報

懶得打字嘛,點擊右側快捷回復 【右側內容,后臺自定義】
您需要登錄后才可以回帖 登錄 | 立即注冊

本版積分規則

QQ|Archiver|手機版|小黑屋| 中國高清網 |網站地圖

GMT+8, 2019-10-18 06:07 , Processed in 0.206801 second(s), 38 queries .

Powered by HDchina X3.4

Copyright 2017-2019©HDchina.All right reserved

返回頂部 聯系我們
活塞对步行者历史记录