查看: 182|回復: 0
打印 上一主題 下一主題

[REMUX.HEVC] 獅子王/獅子王真人版 The.Lion.King.2019.2160p.BluRay.REMUX.HEVC.DTS-HD.MA.TrueHD.7.1-FGT 58.97GB

[復制鏈接]

 成長值: 3470

級別:資源管理組

注冊時間
2017-10-20
最后登錄
2019-12-16
聽眾
1
收聽
0
主題
88454
藍光幣
71375 枚
貢獻
12816 點
跳轉到指定樓層
樓主
發表于 2019-10-15 22:13:39 | 只看該作者 |只看大圖 回帖獎勵 |倒序瀏覽 |閱讀模式


譯  名 獅子王 / 獅子王真人版 / 獅子王真實版 / 獅子王真獅版
片  名 The Lion King
年  代 2019
產  地 美國
類  別 劇情 / 動畫 / 冒險
語  言 英語 / 科薩語
上映日期 2019-07-12(中國大陸) / 2019-07-19(美國)
IMDb評分  7.1/10 from 104480 users
IMDb鏈接  http://www.imdb.com/title/tt6105098
豆瓣評分 7.4/10 from 196500 users
豆瓣鏈接 https://movie.douban.com/subject/26884354/
片  長 118分鐘
導  演 喬恩·費儒 Jon Favreau
編  劇 杰夫·內拿森 Jeff Nathanson / 布蘭達?查普曼 Brenda Chapman / 艾琳·梅琪 Irene Mecchi / 喬納森·羅伯茨 Jonathan Roberts / 琳達·伍爾芙頓 Linda Woolverton
主  演 唐納德·格洛弗 Donald Glover
       阿爾法·伍達德 Alfre Woodard
       詹姆斯·厄爾·瓊斯 James Earl Jones
       切瓦特·埃加福特 Chiwetel Ejiofor
       科甘-邁克爾·凱 Keegan-Michael Key
       塞斯·羅根 Seth Rogen
       比利·艾希納 Billy Eichner
       碧昂絲·諾爾斯 Beyoncé Knowles
       埃里克·安德烈 Eric André
       弗洛倫絲·卡松巴 Florence Kasumba
       約翰·卡尼 John Kani
       約翰·奧利弗 John Oliver
       艾米·塞德麗絲 Amy Sedaris


標  簽 迪士尼 | 經典 | 動畫 | 童年 | 美國 | 成長 | 2019 | 動物

簡  介  

  非洲大草原上一輪紅日冉冉升起,為高大的乞力馬扎羅山披上層金色的光紗,所有的動物涌向了同一個地方——榮耀石,興奮地等待著一個重大消息的宣布:它們的國王木法沙將迎來自己的新生兒。
  這個新生兒就是小獅子辛巴,它是木法沙的法定接班人、榮耀石未來的國王。
  小獅子王辛巴在眾多熱情的朋友的陪伴下,不但經歷了生命中最光榮的時刻,也遭遇了最艱難的挑戰,最后終于成為了森林之王,也在周而復始生生不息的自然中體會出生命的真義。

獲獎情況  

  第5屆豆瓣電影年度榜單(2018)
  最值得期待的圍語電影(提名)
  1. Video
  2. ID                                       : 1
  3. Format                                   : HEVC
  4. Format/Info                              : High Efficiency Video Coding
  5. Format profile                           : Main [email protected]@High
  6. HDR format                               : SMPTE ST 2086, HDR10 compatible
  7. Codec ID                                 : V_MPEGH/ISO/HEVC
  8. Duration                                 : 1 h 58 min
  9. Bit rate                                 : 54.3 Mb/s
  10. Width                                    : 3 840 pixels
  11. Height                                   : 2 160 pixels
  12. Display aspect ratio                     : 16:9
  13. Frame rate mode                          : Constant
  14. Frame rate                               : 23.976 (24000/1001) FPS
  15. Color space                              : YUV
  16. Chroma subsampling                       : 4:2:0 (Type 2)
  17. Bit depth                                : 10 bits
  18. Bits/(Pixel*Frame)                       : 0.273
  19. Stream size                              : 44.8 GiB (76%)
  20. Title                                    : The.Lion.King.2019.2160p.BluRay.REMUX.HEVC.DTS-HD.MA.TrueHD.7.1-FGT
  21. Writing library                          : ATEME Titan File 3.9.0 (4.9.0.0)        
  22. Language                                 : English
  23. Default                                  : No
  24. Forced                                   : No
  25. Color range                              : Limited
  26. Color primaries                          : BT.2020
  27. Transfer characteristics                 : PQ
  28. Matrix coefficients                      : BT.2020 non-constant
  29. Mastering display color primaries        : Display P3
  30. Mastering display luminance              : min: 0.0001 cd/m2, max: 1000 cd/m2

  31. Audio #1
  32. ID                                       : 2
  33. Format                                   : MLP FBA 16-ch
  34. Format/Info                              : Meridian Lossless Packing FBA with 16-channel presentation
  35. Commercial name                          : Dolby TrueHD with Dolby Atmos
  36. Codec ID                                 : A_TRUEHD
  37. Duration                                 : 1 h 58 min
  38. Bit rate mode                            : Variable
  39. Bit rate                                 : 4 929 kb/s
  40. Maximum bit rate                         : 7 332 kb/s
  41. Channel(s)                               : 8 channels
  42. Channel layout                           : L R C LFE Ls Rs Lb Rb
  43. Sampling rate                            : 48.0 kHz
  44. Frame rate                               : 1 200.000 FPS (40 SPF)
  45. Compression mode                         : Lossless
  46. Stream size                              : 4.07 GiB (7%)
  47. Title                                    : The.Lion.King.2019.2160p.BluRay.REMUX.HEVC.DTS-HD.MA.TrueHD.7.1-FGT
  48. Language                                 : English
  49. Default                                  : Yes
  50. Forced                                   : No
  51. Number of dynamic objects                : 13
  52. Bed channel count                        : 1 channel
  53. Bed channel configuration                : LFE

  54. Audio #2
  55. ID                                       : 3
  56. Format                                   : AC-3
  57. Format/Info                              : Audio Coding 3
  58. Commercial name                          : Dolby Digital
  59. Codec ID                                 : A_AC3
  60. Duration                                 : 1 h 58 min
  61. Bit rate mode                            : Constant
  62. Bit rate                                 : 640 kb/s
  63. Channel(s)                               : 6 channels
  64. Channel layout                           : L R C LFE Ls Rs
  65. Sampling rate                            : 48.0 kHz
  66. Frame rate                               : 31.250 FPS (1536 SPF)
  67. Bit depth                                : 16 bits
  68. Compression mode                         : Lossy
  69. Stream size                              : 541 MiB (1%)
  70. Title                                    : The.Lion.King.2019.2160p.BluRay.REMUX.HEVC.DTS-HD.MA.TrueHD.7.1-FGT
  71. Language                                 : English
  72. Service kind                             : Complete Main
  73. Default                                  : No
  74. Forced                                   : No

  75. Audio #3
  76. ID                                       : 4
  77. Format                                   : DTS XLL
  78. Format/Info                              : Digital Theater Systems
  79. Commercial name                          : DTS-HD Master Audio
  80. Codec ID                                 : A_DTS
  81. Duration                                 : 1 h 58 min
  82. Bit rate mode                            : Variable
  83. Bit rate                                 : 4 033 kb/s
  84. Channel(s)                               : 8 channels
  85. Channel layout                           : C L R LFE Lb Rb Lss Rss
  86. Sampling rate                            : 48.0 kHz
  87. Frame rate                               : 93.750 FPS (512 SPF)
  88. Bit depth                                : 24 bits
  89. Compression mode                         : Lossless
  90. Stream size                              : 3.33 GiB (6%)
  91. Title                                    : The.Lion.King.2019.2160p.BluRay.REMUX.HEVC.DTS-HD.MA.TrueHD.7.1-FGT
  92. Language                                 : English
  93. Default                                  : No
  94. Forced                                   : No

  95. Audio #4
  96. ID                                       : 5
  97. Format                                   : AC-3
  98. Format/Info                              : Audio Coding 3
  99. Commercial name                          : Dolby Digital
  100. Codec ID                                 : A_AC3
  101. Duration                                 : 1 h 58 min
  102. Bit rate mode                            : Constant
  103. Bit rate                                 : 320 kb/s
  104. Channel(s)                               : 2 channels
  105. Channel layout                           : L R
  106. Sampling rate                            : 48.0 kHz
  107. Frame rate                               : 31.250 FPS (1536 SPF)
  108. Bit depth                                : 16 bits
  109. Compression mode                         : Lossy
  110. Stream size                              : 271 MiB (0%)
  111. Title                                    : The.Lion.King.2019.2160p.BluRay.REMUX.HEVC.DTS-HD.MA.TrueHD.7.1-FGT
  112. Language                                 : English
  113. Service kind                             : Complete Main
  114. Default                                  : No
  115. Forced                                   : No

  116. Audio #5
  117. ID                                       : 6
  118. Format                                   : E-AC-3
  119. Format/Info                              : Enhanced AC-3
  120. Commercial name                          : Dolby Digital Plus
  121. Format profile                           : Blu-ray Disc
  122. Codec ID                                 : A_EAC3
  123. Duration                                 : 1 h 58 min
  124. Bit rate mode                            : Constant
  125. Bit rate                                 : 1 024 kb/s
  126. Channel(s)                               : 8 channels
  127. Channel layout                           : L R C LFE Ls Rs Lb Rb
  128. Sampling rate                            : 48.0 kHz
  129. Frame rate                               : 31.250 FPS (1536 SPF)
  130. Compression mode                         : Lossy
  131. Stream size                              : 866 MiB (1%)
  132. Title                                    : The.Lion.King.2019.2160p.BluRay.REMUX.HEVC.DTS-HD.MA.TrueHD.7.1-FGT
  133. Language                                 : French
  134. Service kind                             : Complete Main
  135. Default                                  : No
  136. Forced                                   : No

  137. Audio #6
  138. ID                                       : 7
  139. Format                                   : AC-3
  140. Format/Info                              : Audio Coding 3
  141. Commercial name                          : Dolby Digital
  142. Codec ID                                 : A_AC3
  143. Duration                                 : 1 h 58 min
  144. Bit rate mode                            : Constant
  145. Bit rate                                 : 576 kb/s
  146. Channel(s)                               : 6 channels
  147. Channel layout                           : L R C LFE Ls Rs
  148. Sampling rate                            : 48.0 kHz
  149. Frame rate                               : 31.250 FPS (1536 SPF)
  150. Bit depth                                : 16 bits
  151. Compression mode                         : Lossy
  152. Stream size                              : 487 MiB (1%)
  153. Title                                    : The.Lion.King.2019.2160p.BluRay.REMUX.HEVC.DTS-HD.MA.TrueHD.7.1-FGT
  154. Language                                 : French
  155. Service kind                             : Complete Main
  156. Default                                  : No
  157. Forced                                   : No

  158. Audio #7
  159. ID                                       : 8
  160. Format                                   : AC-3
  161. Format/Info                              : Audio Coding 3
  162. Commercial name                          : Dolby Digital
  163. Codec ID                                 : A_AC3
  164. Duration                                 : 1 h 58 min
  165. Bit rate mode                            : Constant
  166. Bit rate                                 : 640 kb/s
  167. Channel(s)                               : 6 channels
  168. Channel layout                           : L R C LFE Ls Rs
  169. Sampling rate                            : 48.0 kHz
  170. Frame rate                               : 31.250 FPS (1536 SPF)
  171. Bit depth                                : 16 bits
  172. Compression mode                         : Lossy
  173. Stream size                              : 541 MiB (1%)
  174. Title                                    : The.Lion.King.2019.2160p.BluRay.REMUX.HEVC.DTS-HD.MA.TrueHD.7.1-FGT
  175. Language                                 : French
  176. Service kind                             : Complete Main
  177. Default                                  : No
  178. Forced                                   : No

  179. Audio #8
  180. ID                                       : 9
  181. Format                                   : E-AC-3
  182. Format/Info                              : Enhanced AC-3
  183. Commercial name                          : Dolby Digital Plus
  184. Format profile                           : Blu-ray Disc
  185. Codec ID                                 : A_EAC3
  186. Duration                                 : 1 h 58 min
  187. Bit rate mode                            : Constant
  188. Bit rate                                 : 1 024 kb/s
  189. Channel(s)                               : 8 channels
  190. Channel layout                           : L R C LFE Ls Rs Lb Rb
  191. Sampling rate                            : 48.0 kHz
  192. Frame rate                               : 31.250 FPS (1536 SPF)
  193. Compression mode                         : Lossy
  194. Stream size                              : 866 MiB (1%)
  195. Title                                    : The.Lion.King.2019.2160p.BluRay.REMUX.HEVC.DTS-HD.MA.TrueHD.7.1-FGT
  196. Language                                 : Spanish
  197. Service kind                             : Complete Main
  198. Default                                  : No
  199. Forced                                   : No

  200. Audio #9
  201. ID                                       : 10
  202. Format                                   : AC-3
  203. Format/Info                              : Audio Coding 3
  204. Commercial name                          : Dolby Digital
  205. Codec ID                                 : A_AC3
  206. Duration                                 : 1 h 58 min
  207. Bit rate mode                            : Constant
  208. Bit rate                                 : 576 kb/s
  209. Channel(s)                               : 6 channels
  210. Channel layout                           : L R C LFE Ls Rs
  211. Sampling rate                            : 48.0 kHz
  212. Frame rate                               : 31.250 FPS (1536 SPF)
  213. Bit depth                                : 16 bits
  214. Compression mode                         : Lossy
  215. Stream size                              : 487 MiB (1%)
  216. Title                                    : The.Lion.King.2019.2160p.BluRay.REMUX.HEVC.DTS-HD.MA.TrueHD.7.1-FGT
  217. Language                                 : Spanish
  218. Service kind                             : Complete Main
  219. Default                                  : No
  220. Forced                                   : No

  221. Audio #10
  222. ID                                       : 11
  223. Format                                   : E-AC-3
  224. Format/Info                              : Enhanced AC-3
  225. Commercial name                          : Dolby Digital Plus
  226. Format profile                           : Blu-ray Disc
  227. Codec ID                                 : A_EAC3
  228. Duration                                 : 1 h 58 min
  229. Bit rate mode                            : Constant
  230. Bit rate                                 : 1 024 kb/s
  231. Channel(s)                               : 8 channels
  232. Channel layout                           : L R C LFE Ls Rs Lb Rb
  233. Sampling rate                            : 48.0 kHz
  234. Frame rate                               : 31.250 FPS (1536 SPF)
  235. Compression mode                         : Lossy
  236. Stream size                              : 866 MiB (1%)
  237. Title                                    : The.Lion.King.2019.2160p.BluRay.REMUX.HEVC.DTS-HD.MA.TrueHD.7.1-FGT
  238. Language                                 : Italian
  239. Service kind                             : Complete Main
  240. Default                                  : No
  241. Forced                                   : No

  242. Audio #11
  243. ID                                       : 12
  244. Format                                   : AC-3
  245. Format/Info                              : Audio Coding 3
  246. Commercial name                          : Dolby Digital
  247. Codec ID                                 : A_AC3
  248. Duration                                 : 1 h 58 min
  249. Bit rate mode                            : Constant
  250. Bit rate                                 : 576 kb/s
  251. Channel(s)                               : 6 channels
  252. Channel layout                           : L R C LFE Ls Rs
  253. Sampling rate                            : 48.0 kHz
  254. Frame rate                               : 31.250 FPS (1536 SPF)
  255. Bit depth                                : 16 bits
  256. Compression mode                         : Lossy
  257. Stream size                              : 487 MiB (1%)
  258. Title                                    : The.Lion.King.2019.2160p.BluRay.REMUX.HEVC.DTS-HD.MA.TrueHD.7.1-FGT
  259. Language                                 : Italian
  260. Service kind                             : Complete Main
  261. Default                                  : No
  262. Forced                                   : No

  263. Audio #12
  264. ID                                       : 13
  265. Format                                   : E-AC-3
  266. Format/Info                              : Enhanced AC-3
  267. Commercial name                          : Dolby Digital Plus
  268. Format profile                           : Blu-ray Disc
  269. Codec ID                                 : A_EAC3
  270. Duration                                 : 1 h 58 min
  271. Bit rate mode                            : Constant
  272. Bit rate                                 : 1 024 kb/s
  273. Channel(s)                               : 8 channels
  274. Channel layout                           : L R C LFE Ls Rs Lb Rb
  275. Sampling rate                            : 48.0 kHz
  276. Frame rate                               : 31.250 FPS (1536 SPF)
  277. Compression mode                         : Lossy
  278. Stream size                              : 866 MiB (1%)
  279. Title                                    : The.Lion.King.2019.2160p.BluRay.REMUX.HEVC.DTS-HD.MA.TrueHD.7.1-FGT
  280. Language                                 : German
  281. Service kind                             : Complete Main
  282. Default                                  : No
  283. Forced                                   : No

  284. Audio #13
  285. ID                                       : 14
  286. Format                                   : AC-3
  287. Format/Info                              : Audio Coding 3
  288. Commercial name                          : Dolby Digital
  289. Codec ID                                 : A_AC3
  290. Duration                                 : 1 h 58 min
  291. Bit rate mode                            : Constant
  292. Bit rate                                 : 576 kb/s
  293. Channel(s)                               : 6 channels
  294. Channel layout                           : L R C LFE Ls Rs
  295. Sampling rate                            : 48.0 kHz
  296. Frame rate                               : 31.250 FPS (1536 SPF)
  297. Bit depth                                : 16 bits
  298. Compression mode                         : Lossy
  299. Stream size                              : 487 MiB (1%)
  300. Title                                    : The.Lion.King.2019.2160p.BluRay.REMUX.HEVC.DTS-HD.MA.TrueHD.7.1-FGT
  301. Language                                 : German
  302. Service kind                             : Complete Main
  303. Default                                  : No
  304. Forced                                   : No

  305. Text #1
  306. ID                                       : 15
  307. Format                                   : UTF-8
  308. Codec ID                                 : S_TEXT/UTF8
  309. Codec ID/Info                            : UTF-8 Plain Text
  310. Duration                                 : 1 h 50 min
  311. Bit rate                                 : 49 b/s
  312. Count of elements                        : 1547
  313. Stream size                              : 40.0 KiB (0%)
  314. Title                                    : English-SRT
  315. Language                                 : English
  316. Default                                  : Yes
  317. Forced                                   : No

  318. Text #2
  319. ID                                       : 16
  320. Format                                   : UTF-8
  321. Codec ID                                 : S_TEXT/UTF8
  322. Codec ID/Info                            : UTF-8 Plain Text
  323. Duration                                 : 1 h 52 min
  324. Bit rate                                 : 55 b/s
  325. Count of elements                        : 1738
  326. Stream size                              : 45.1 KiB (0%)
  327. Title                                    : English-SDH-SRT
  328. Language                                 : English
  329. Default                                  : No
  330. Forced                                   : No

  331. Text #3
  332. ID                                       : 17
  333. Format                                   : PGS
  334. Muxing mode                              : zlib
  335. Codec ID                                 : S_HDMV/PGS
  336. Codec ID/Info                            : Picture based subtitle format used on BDs/HD-DVDs
  337. Duration                                 : 1 h 52 min
  338. Bit rate                                 : 37.3 kb/s
  339. Count of elements                        : 3420
  340. Stream size                              : 29.8 MiB (0%)
  341. Title                                    : English-PGS
  342. Language                                 : English
  343. Default                                  : No
  344. Forced                                   : No

  345. Text #4
  346. ID                                       : 18
  347. Format                                   : PGS
  348. Muxing mode                              : zlib
  349. Codec ID                                 : S_HDMV/PGS
  350. Codec ID/Info                            : Picture based subtitle format used on BDs/HD-DVDs
  351. Duration                                 : 1 h 55 min
  352. Bit rate                                 : 25.9 kb/s
  353. Count of elements                        : 2556
  354. Stream size                              : 21.5 MiB (0%)
  355. Title                                    : French-PGS
  356. Language                                 : French
  357. Default                                  : No
  358. Forced                                   : No

  359. Text #5
  360. ID                                       : 19
  361. Format                                   : PGS
  362. Muxing mode                              : zlib
  363. Codec ID                                 : S_HDMV/PGS
  364. Codec ID/Info                            : Picture based subtitle format used on BDs/HD-DVDs
  365. Duration                                 : 1 h 56 min
  366. Bit rate                                 : 31.4 kb/s
  367. Count of elements                        : 2788
  368. Stream size                              : 26.2 MiB (0%)
  369. Title                                    : French-PGS
  370. Language                                 : French
  371. Default                                  : No
  372. Forced                                   : No

  373. Text #6
  374. ID                                       : 20
  375. Format                                   : PGS
  376. Muxing mode                              : zlib
  377. Codec ID                                 : S_HDMV/PGS
  378. Codec ID/Info                            : Picture based subtitle format used on BDs/HD-DVDs
  379. Duration                                 : 1 h 46 min
  380. Bit rate                                 : 32.7 kb/s
  381. Count of elements                        : 2742
  382. Stream size                              : 24.8 MiB (0%)
  383. Title                                    : Spanish-PGS
  384. Language                                 : Spanish
  385. Default                                  : No
  386. Forced                                   : No

  387. Text #7
  388. ID                                       : 21
  389. Format                                   : PGS
  390. Muxing mode                              : zlib
  391. Codec ID                                 : S_HDMV/PGS
  392. Codec ID/Info                            : Picture based subtitle format used on BDs/HD-DVDs
  393. Duration                                 : 1 h 55 min
  394. Bit rate                                 : 28.1 kb/s
  395. Count of elements                        : 2716
  396. Stream size                              : 23.3 MiB (0%)
  397. Title                                    : Italian-PGS
  398. Language                                 : Italian
  399. Default                                  : No
  400. Forced                                   : No

  401. Text #8
  402. ID                                       : 22
  403. Format                                   : PGS
  404. Muxing mode                              : zlib
  405. Codec ID                                 : S_HDMV/PGS
  406. Codec ID/Info                            : Picture based subtitle format used on BDs/HD-DVDs
  407. Duration                                 : 1 h 55 min
  408. Bit rate                                 : 28.9 kb/s
  409. Count of elements                        : 2850
  410. Stream size                              : 24.0 MiB (0%)
  411. Title                                    : German-PGS
  412. Language                                 : German
  413. Default                                  : No
  414. Forced                                   : No

  415. Text #9
  416. ID                                       : 23
  417. Format                                   : PGS
  418. Muxing mode                              : zlib
  419. Codec ID                                 : S_HDMV/PGS
  420. Codec ID/Info                            : Picture based subtitle format used on BDs/HD-DVDs
  421. Duration                                 : 1 h 55 min
  422. Bit rate                                 : 25.9 kb/s
  423. Count of elements                        : 2716
  424. Stream size                              : 21.4 MiB (0%)
  425. Title                                    : Norwegian-PGS
  426. Language                                 : Norwegian
  427. Default                                  : No
  428. Forced                                   : No

  429. Text #10
  430. ID                                       : 24
  431. Format                                   : PGS
  432. Muxing mode                              : zlib
  433. Codec ID                                 : S_HDMV/PGS
  434. Codec ID/Info                            : Picture based subtitle format used on BDs/HD-DVDs
  435. Duration                                 : 1 h 55 min
  436. Bit rate                                 : 24.1 kb/s
  437. Count of elements                        : 1890
  438. Stream size                              : 20.0 MiB (0%)
  439. Title                                    : Swedish-PGS
  440. Language                                 : Swedish
  441. Default                                  : No
  442. Forced                                   : No

  443. Text #11
  444. ID                                       : 25
  445. Format                                   : PGS
  446. Muxing mode                              : zlib
  447. Codec ID                                 : S_HDMV/PGS
  448. Codec ID/Info                            : Picture based subtitle format used on BDs/HD-DVDs
  449. Duration                                 : 1 h 43 min
  450. Bit rate                                 : 22 b/s
  451. Count of elements                        : 4
  452. Stream size                              : 17.2 KiB (0%)
  453. Title                                    : French-FORCED-PGS
  454. Language                                 : French
  455. Default                                  : No
  456. Forced                                   : No

  457. Text #12
  458. ID                                       : 26
  459. Format                                   : PGS
  460. Muxing mode                              : zlib
  461. Codec ID                                 : S_HDMV/PGS
  462. Codec ID/Info                            : Picture based subtitle format used on BDs/HD-DVDs
  463. Duration                                 : 1 h 49 min
  464. Bit rate                                 : 399 b/s
  465. Count of elements                        : 48
  466. Stream size                              : 320 KiB (0%)
  467. Title                                    : French-FORCED-PGS
  468. Language                                 : French
  469. Default                                  : No
  470. Forced                                   : No

  471. Text #13
  472. ID                                       : 27
  473. Format                                   : PGS
  474. Muxing mode                              : zlib
  475. Codec ID                                 : S_HDMV/PGS
  476. Codec ID/Info                            : Picture based subtitle format used on BDs/HD-DVDs
  477. Duration                                 : 1 h 43 min
  478. Bit rate                                 : 21 b/s
  479. Count of elements                        : 4
  480. Stream size                              : 16.0 KiB (0%)
  481. Title                                    : Spanish-FORCED-PGS
  482. Language                                 : Spanish
  483. Default                                  : No
  484. Forced                                   : No

  485. Text #14
  486. ID                                       : 28
  487. Format                                   : PGS
  488. Muxing mode                              : zlib
  489. Codec ID                                 : S_HDMV/PGS
  490. Codec ID/Info                            : Picture based subtitle format used on BDs/HD-DVDs
  491. Duration                                 : 5 s 444 ms
  492. Bit rate                                 : 12.0 kb/s
  493. Count of elements                        : 2
  494. Stream size                              : 7.99 KiB (0%)
  495. Title                                    : Italian-FORCED-PGS
  496. Language                                 : Italian
  497. Default                                  : No
  498. Forced                                   : No

  499. Text #15
  500. ID                                       : 29
  501. Format                                   : PGS
  502. Muxing mode                              : zlib
  503. Codec ID                                 : S_HDMV/PGS
  504. Codec ID/Info                            : Picture based subtitle format used on BDs/HD-DVDs
  505. Duration                                 : 4 s 609 ms
  506. Bit rate                                 : 29.1 kb/s
  507. Count of elements                        : 2
  508. Stream size                              : 16.3 KiB (0%)
  509. Title                                    : German-FORCED-PGS
  510. Language                                 : German
  511. Default                                  : No
  512. Forced                                   : No

  513. Menu
  514. 00:00:00.000                             : en:Chapter 01
  515. 00:04:50.373                             : en:Chapter 02
  516. 00:10:51.067                             : en:Chapter 03
  517. 00:17:47.691                             : en:Chapter 04
  518. 00:23:52.764                             : en:Chapter 05
  519. 00:29:59.756                             : en:Chapter 06
  520. 00:33:05.066                             : en:Chapter 07
  521. 00:37:09.310                             : en:Chapter 08
  522. 00:43:42.911                             : en:Chapter 09
  523. 00:50:47.335                             : en:Chapter 10
  524. 00:55:02.716                             : en:Chapter 11
  525. 00:59:48.459                             : en:Chapter 12
  526. 01:06:27.233                             : en:Chapter 13
  527. 01:14:32.092                             : en:Chapter 14
  528. 01:18:26.118                             : en:Chapter 15
  529. 01:23:07.524                             : en:Chapter 16
  530. 01:28:04.654                             : en:Chapter 17
  531. 01:33:10.876                             : en:Chapter 18
  532. 01:37:13.744                             : en:Chapter 19
  533. 01:44:39.189                             : en:Chapter 20
  534. 01:47:47.043                             : en:Chapter 21
復制代碼









本帖隱藏的下載地址需要VIP會員才可瀏覽,您需要升級才可瀏覽,點擊這里升級VIP
分享到:  QQ好友和群QQ好友和群
收藏收藏
VIP會員免費任意下載本站所有資源!---點擊開通
回復

使用道具 舉報

懶得打字嘛,點擊右側快捷回復 【右側內容,后臺自定義】
您需要登錄后才可以回帖 登錄 | 立即注冊

本版積分規則

QQ|Archiver|手機版|小黑屋| 中國高清網 |網站地圖

GMT+8, 2019-12-16 01:34 , Processed in 0.134494 second(s), 36 queries .

Powered by HDchina X3.4

Copyright 2017-2019©HDchina.All right reserved

返回頂部 聯系我們
活塞对步行者历史记录