查看: 126|回復: 1
打印 上一主題 下一主題

[8bit.SDR] 疤面煞星/疤臉人 Scarface.1983.2160p.BluRay.x264.8bit.SDR.DTS-X.7.1-SWTYBLZ 83.81GB

[復制鏈接]

 成長值: 3460

級別:資源管理組

注冊時間
2017-10-20
最后登錄
2019-12-15
聽眾
1
收聽
0
主題
88450
藍光幣
71252 枚
貢獻
12812 點
跳轉到指定樓層
樓主
發表于 2019-10-14 22:24:56 | 只看該作者 |只看大圖 回帖獎勵 |倒序瀏覽 |閱讀模式


譯  名 疤面煞星 / 疤臉人 / 疤面人
片  名 Scarface
年  代 1983
產  地 美國
類  別 劇情 / 驚悚 / 犯罪
語  言 英語 / 西班牙語
上映日期 1983-12-01
IMDb評分  8.3/10 from 678058 users
IMDb鏈接  https://www.imdb.com/title/tt0086250
豆瓣評分 8.3/10 from 44839 users
豆瓣鏈接 https://movie.douban.com/subject/1292065/
片  長 170 分鐘
導  演 布萊恩·德·帕爾瑪 Brian De Palma
編  劇 奧利佛·斯通 Oliver Stone
主  演 阿爾·帕西諾 Al Pacino
       斯蒂文·鮑爾 Steven Bauer
       米歇爾·菲佛 Michelle Pfeiffer
       瑪麗·伊麗莎白·馬斯特蘭托尼奧 Mary Elizabeth Mastrantonio
       羅伯特·勞吉亞 Robert Loggia


標  簽 黑幫 | 阿爾·帕西諾 | 犯罪 | 美國 | AlPacino | 暴力 | 經典 | 美國電影

簡  介  

  古巴難民青年托尼(阿爾?帕西諾 Al Pacino 飾)逃難來到了美國的邁阿密,成了一個典型的天不怕、地不怕的美國街頭小混混。托尼在當地的一個毒梟手下干活,因其心狠手辣、膽大心細,十分出色地幫老大完成了幾件任務而迅速受到賞識,成為毒梟的第一得力助手。
  然而托尼并沒有就此滿足,他先是從委內瑞拉的毒梟那里接下了大單子,接著將自己的眼中釘一顆顆除去,勢力不斷擴大。當他的老大感受到威脅時已經太晚了,托尼將老大干掉然后一統了邁阿密毒品市場的天下。
  托尼得勢后他的性格開始變得疑神疑鬼,對周圍的人甚至至親的家人、好兄弟都充滿懷疑。疑心使他逐漸走上了不歸路!
  1. Video
  2. ID                                       : 1
  3. Format                                   : AVC
  4. Format/Info                              : Advanced Video Codec
  5. Format profile                           : [email protected]
  6. Format settings                          : CABAC / 5 Ref Frames
  7. Format settings, CABAC                   : Yes
  8. Format settings, Reference frames        : 5 frames
  9. Codec ID                                 : V_MPEG4/ISO/AVC
  10. Duration                                 : 2 h 49 min
  11. Bit rate                                 : 63.8 Mb/s
  12. Width                                    : 3 840 pixels
  13. Height                                   : 1 634 pixels
  14. Display aspect ratio                     : 2.35:1
  15. Frame rate mode                          : Constant
  16. Frame rate                               : 23.976 (24000/1001) FPS
  17. Color space                              : YUV
  18. Chroma subsampling                       : 4:2:0
  19. Bit depth                                : 8 bits
  20. Scan type                                : Progressive
  21. Bits/(Pixel*Frame)                       : 0.424
  22. Stream size                              : 75.7 GiB (91%)
  23. Title                                    : Scarface.1983.2160p.BluRay.x264.8bit.SDR.DTS-X.7.1-SWTYBLZ
  24. Writing library                          : x264 core 157 r2935 545de2f
  25. Encoding settings                        : cabac=1 / ref=5 / deblock=1:-1:-1 / analyse=0x3:0x113 / me=umh / subme=10 / psy=1 / psy_rd=1.00:0.15 / mixed_ref=1 / me_range=48 / chroma_me=1 / trellis=2 / 8x8dct=1 / cqm=0 / deadzone=21,11 / fast_pskip=1 / chroma_qp_offset=-3 / threads=48 / lookahead_threads=4 / sliced_threads=0 / nr=0 / decimate=0 / interlaced=0 / bluray_compat=0 / constrained_intra=0 / bframes=3 / b_pyramid=2 / b_adapt=2 / b_bias=0 / direct=3 / weightb=1 / open_gop=0 / weightp=2 / keyint=250 / keyint_min=23 / scenecut=40 / intra_refresh=0 / rc_lookahead=50 / rc=crf / mbtree=1 / crf=22.0 / qcomp=0.60 / qpmin=0 / qpmax=69 / qpstep=4 / ip_ratio=1.40 / aq=1:1.00
  26. Language                                 : English
  27. Default                                  : Yes
  28. Forced                                   : No

  29. Audio #1
  30. ID                                       : 2
  31. Format                                   : DTS XLL X
  32. Format/Info                              : Digital Theater Systems
  33. Commercial name                          : DTS-HD Master Audio
  34. Codec ID                                 : A_DTS
  35. Duration                                 : 2 h 49 min
  36. Bit rate mode                            : Variable
  37. Bit rate                                 : 5 793 kb/s
  38. Channel(s)                               : 8 channels
  39. Channel(s)_Original                      : Object Based
  40. Channel layout                           : Object Based
  41. Sampling rate                            : 48.0 kHz
  42. Frame rate                               : 93.750 FPS (512 SPF)
  43. Bit depth                                : 24 bits
  44. Stream size                              : 6.87 GiB (8%)
  45. Title                                    : Scarface.1983.2160p.BluRay.x264.8bit.SDR.DTS-X.7.1-SWTYBLZ
  46. Language                                 : English
  47. Default                                  : Yes
  48. Forced                                   : No

  49. Audio #2
  50. ID                                       : 3
  51. Format                                   : AC-3
  52. Format/Info                              : Audio Coding 3
  53. Commercial name                          : Dolby Digital
  54. Codec ID                                 : A_AC3
  55. Duration                                 : 2 h 49 min
  56. Bit rate mode                            : Constant
  57. Bit rate                                 : 640 kb/s
  58. Channel(s)                               : 6 channels
  59. Channel layout                           : L R C LFE Ls Rs
  60. Sampling rate                            : 48.0 kHz
  61. Frame rate                               : 31.250 FPS (1536 SPF)
  62. Bit depth                                : 16 bits
  63. Compression mode                         : Lossy
  64. Stream size                              : 778 MiB (1%)
  65. Title                                    : Scarface.1983.2160p.BluRay.x264.8bit.SDR.DTS-X.7.1-SWTYBLZ
  66. Language                                 : English
  67. Service kind                             : Complete Main
  68. Default                                  : No
  69. Forced                                   : No

  70. Text #1
  71. ID                                       : 4
  72. Format                                   : UTF-8
  73. Codec ID                                 : S_TEXT/UTF8
  74. Codec ID/Info                            : UTF-8 Plain Text
  75. Duration                                 : 2 h 39 min
  76. Bit rate                                 : 57 b/s
  77. Count of elements                        : 2268
  78. Stream size                              : 67.5 KiB (0%)
  79. Title                                    : English-SRT
  80. Language                                 : English
  81. Default                                  : Yes
  82. Forced                                   : No

  83. Text #2
  84. ID                                       : 5
  85. Format                                   : UTF-8
  86. Codec ID                                 : S_TEXT/UTF8
  87. Codec ID/Info                            : UTF-8 Plain Text
  88. Duration                                 : 2 h 42 min
  89. Bit rate                                 : 59 b/s
  90. Count of elements                        : 2406
  91. Stream size                              : 70.7 KiB (0%)
  92. Title                                    : English-SDHSRT
  93. Language                                 : English
  94. Default                                  : No
  95. Forced                                   : No

  96. Text #3
  97. ID                                       : 6
  98. Format                                   : PGS
  99. Muxing mode                              : zlib
  100. Codec ID                                 : S_HDMV/PGS
  101. Codec ID/Info                            : Picture based subtitle format used on BDs/HD-DVDs
  102. Duration                                 : 2 h 42 min
  103. Bit rate                                 : 39.1 kb/s
  104. Count of elements                        : 4812
  105. Stream size                              : 45.4 MiB (0%)
  106. Title                                    : English-PGS
  107. Language                                 : English
  108. Default                                  : No
  109. Forced                                   : No

  110. Text #4
  111. ID                                       : 7
  112. Format                                   : PGS
  113. Muxing mode                              : zlib
  114. Codec ID                                 : S_HDMV/PGS
  115. Codec ID/Info                            : Picture based subtitle format used on BDs/HD-DVDs
  116. Duration                                 : 2 h 43 min
  117. Bit rate                                 : 25.2 kb/s
  118. Count of elements                        : 3682
  119. Stream size                              : 29.6 MiB (0%)
  120. Title                                    : Spanish-PGS
  121. Language                                 : Spanish
  122. Default                                  : No
  123. Forced                                   : No

  124. Text #5
  125. ID                                       : 8
  126. Format                                   : PGS
  127. Muxing mode                              : zlib
  128. Codec ID                                 : S_HDMV/PGS
  129. Codec ID/Info                            : Picture based subtitle format used on BDs/HD-DVDs
  130. Duration                                 : 2 h 43 min
  131. Bit rate                                 : 28.2 kb/s
  132. Count of elements                        : 3636
  133. Stream size                              : 33.1 MiB (0%)
  134. Title                                    : French-PGS
  135. Language                                 : French
  136. Default                                  : No
  137. Forced                                   : No

  138. Menu
  139. 00:00:00.000                             : en:Chapter 01
  140. 00:08:11.574                             : en:Chapter 02
  141. 00:10:55.237                             : en:Chapter 03
  142. 00:13:40.194                             : en:Chapter 04
  143. 00:15:43.025                             : en:Chapter 05
  144. 00:20:57.923                             : en:Chapter 06
  145. 00:29:51.289                             : en:Chapter 07
  146. 00:33:09.362                             : en:Chapter 08
  147. 00:34:42.538                             : en:Chapter 09
  148. 00:43:13.090                             : en:Chapter 10
  149. 00:46:46.053                             : en:Chapter 11
  150. 00:50:45.042                             : en:Chapter 12
  151. 00:59:02.705                             : en:Chapter 13
  152. 01:04:15.643                             : en:Chapter 14
  153. 01:08:20.471                             : en:Chapter 15
  154. 01:12:57.206                             : en:Chapter 16
  155. 01:17:17.841                             : en:Chapter 17
  156. 01:23:33.008                             : en:Chapter 18
  157. 01:28:48.031                             : en:Chapter 19
  158. 01:33:44.243                             : en:Chapter 20
  159. 01:43:31.413                             : en:Chapter 21
  160. 01:47:01.706                             : en:Chapter 22
  161. 01:51:48.410                             : en:Chapter 23
  162. 01:57:19.991                             : en:Chapter 24
  163. 02:02:43.105                             : en:Chapter 25
  164. 02:07:08.203                             : en:Chapter 26
  165. 02:13:58.405                             : en:Chapter 27
  166. 02:16:04.447                             : en:Chapter 28
  167. 02:21:45.705                             : en:Chapter 29
  168. 02:24:22.779                             : en:Chapter 30
  169. 02:30:37.778                             : en:Chapter 31
  170. 02:35:14.888                             : en:Chapter 32
  171. 02:37:33.068                             : en:Chapter 33
  172. 02:40:04.177                             : en:Chapter 34
  173. 02:43:20.999                             : en:Chapter 35
復制代碼









本帖隱藏的下載地址需要VIP會員才可瀏覽,您需要升級才可瀏覽,點擊這里升級VIP
分享到:  QQ好友和群QQ好友和群
收藏收藏
VIP會員免費任意下載本站所有資源!---點擊開通
回復

使用道具 舉報

級別:專業龍套 Lv.4

注冊時間
2019-7-28
最后登錄
2019-12-15
聽眾
5
收聽
0
主題
0
藍光幣
211 枚
貢獻
0 點
沙發
發表于 2019-10-15 22:12:06 | 只看該作者

樓主太厲害了!樓主,電影應該很好看我覺得中國高清電影網真是個好地方!
VIP會員免費任意下載本站所有資源!---點擊開通
回復

使用道具 舉報

懶得打字嘛,點擊右側快捷回復 【右側內容,后臺自定義】
您需要登錄后才可以回帖 登錄 | 立即注冊

本版積分規則

QQ|Archiver|手機版|小黑屋| 中國高清網 |網站地圖

GMT+8, 2019-12-15 17:17 , Processed in 0.121730 second(s), 36 queries .

Powered by HDchina X3.4

Copyright 2017-2019©HDchina.All right reserved

返回頂部 聯系我們
活塞对步行者历史记录