查看: 32|回復: 0
打印 上一主題 下一主題

[10bit.SDR] 疤面煞星/疤臉人 Scarface.1983.2160p.BluRay.x265.10bit.SDR.DTS-X.7.1-SWTYBLZ 80.44GB

[復制鏈接]

 成長值: 2850

級別:資源管理組

注冊時間
2017-10-20
最后登錄
2019-10-17
聽眾
1
收聽
0
主題
84964
藍光幣
55441 枚
貢獻
9321 點
跳轉到指定樓層
樓主


譯  名 疤面煞星 / 疤臉人 / 疤面人
片  名 Scarface
年  代 1983
產  地 美國
類  別 劇情 / 驚悚 / 犯罪
語  言 英語 / 西班牙語
上映日期 1983-12-01
IMDb評分  8.3/10 from 678058 users
IMDb鏈接  https://www.imdb.com/title/tt0086250
豆瓣評分 8.3/10 from 44839 users
豆瓣鏈接 https://movie.douban.com/subject/1292065/
片  長 170 分鐘
導  演 布萊恩·德·帕爾瑪 Brian De Palma
編  劇 奧利佛·斯通 Oliver Stone
主  演 阿爾·帕西諾 Al Pacino
       斯蒂文·鮑爾 Steven Bauer
       米歇爾·菲佛 Michelle Pfeiffer
       瑪麗·伊麗莎白·馬斯特蘭托尼奧 Mary Elizabeth Mastrantonio
       羅伯特·勞吉亞 Robert Loggia


標  簽 黑幫 | 阿爾·帕西諾 | 犯罪 | 美國 | AlPacino | 暴力 | 經典 | 美國電影

簡  介  

  古巴難民青年托尼(阿爾?帕西諾 Al Pacino 飾)逃難來到了美國的邁阿密,成了一個典型的天不怕、地不怕的美國街頭小混混。托尼在當地的一個毒梟手下干活,因其心狠手辣、膽大心細,十分出色地幫老大完成了幾件任務而迅速受到賞識,成為毒梟的第一得力助手。
  然而托尼并沒有就此滿足,他先是從委內瑞拉的毒梟那里接下了大單子,接著將自己的眼中釘一顆顆除去,勢力不斷擴大。當他的老大感受到威脅時已經太晚了,托尼將老大干掉然后一統了邁阿密毒品市場的天下。
  托尼得勢后他的性格開始變得疑神疑鬼,對周圍的人甚至至親的家人、好兄弟都充滿懷疑。疑心使他逐漸走上了不歸路!
  1. Video
  2. ID                                       : 1
  3. Format                                   : HEVC
  4. Format/Info                              : High Efficiency Video Coding
  5. Format profile                           : Main [email protected]@High
  6. Codec ID                                 : V_MPEGH/ISO/HEVC
  7. Duration                                 : 2 h 49 min
  8. Bit rate                                 : 61.1 Mb/s
  9. Width                                    : 3 840 pixels
  10. Height                                   : 1 634 pixels
  11. Display aspect ratio                     : 2.35:1
  12. Frame rate mode                          : Constant
  13. Frame rate                               : 23.976 (24000/1001) FPS
  14. Color space                              : YUV
  15. Chroma subsampling                       : 4:2:0
  16. Bit depth                                : 10 bits
  17. Bits/(Pixel*Frame)                       : 0.406
  18. Stream size                              : 72.5 GiB (90%)
  19. Title                                    : Scarface.1983.2160p.BluRay.x265.10bit.SDR.DTS-X.7.1-SWTYBLZ
  20. Writing library                          : x265 3.0ed72af837053:[Windows][GCC 8.2.0][64 bit] 10bit
  21. Encoding settings                        : cpuid=1111039 / frame-threads=16 / numa-pools=44,44 / wpp / no-pmode / no-pme / no-psnr / no-ssim / log-level=2 / input-csp=1 / input-res=3840x1634 / interlace=0 / total-frames=244350 / level-idc=51 / high-tier=1 / uhd-bd=0 / ref=3 / no-allow-non-conformance / repeat-headers / annexb / aud / hrd / info / hash=0 / no-temporal-layers / no-open-gop / min-keyint=1 / keyint=24 / gop-lookahead=0 / bframes=4 / b-adapt=2 / b-pyramid / bframe-bias=0 / rc-lookahead=25 / lookahead-slices=4 / scenecut=40 / radl=0 / no-splice / no-intra-refresh / ctu=64 / min-cu-size=8 / no-rect / no-amp / max-tu-size=32 / tu-inter-depth=1 / tu-intra-depth=1 / limit-tu=0 / rdoq-level=0 / dynamic-rd=0.00 / no-ssim-rd / signhide / no-tskip / nr-intra=0 / nr-inter=0 / no-constrained-intra / strong-intra-smoothing / max-merge=2 / limit-refs=3 / no-limit-modes / me=1 / subme=2 / merange=57 / temporal-mvp / weightp / no-weightb / no-analyze-src-pics / deblock=0:0 / no-sao / no-sao-non-deblock / rd=3 / no-early-skip / rskip / no-fast-intra / no-tskip-fast / no-cu-lossless / no-b-intra / no-splitrd-skip / rdpenalty=0 / psy-rd=2.00 / psy-rdoq=0.00 / no-rd-refine / no-lossless / cbqpoffs=0 / crqpoffs=0 / rc=crf / crf=20.0 / qcomp=0.60 / qpstep=4 / stats-write=0 / stats-read=0 / vbv-maxrate=160000 / vbv-bufsize=160000 / vbv-init=0.9 / crf-max=0.0 / crf-min=0.0 / ipratio=1.40 / pbratio=1.30 / aq-mode=1 / aq-strength=1.00 / cutree / zone-count=0 / no-strict-cbr / qg-size=32 / no-rc-grain / qpmax=69 / qpmin=0 / no-const-vbv / sar=1 / overscan=0 / videoformat=5 / range=0 / colorprim=2 / transfer=2 / colormatrix=2 / chromaloc=0 / display-window=0 / max-cll=0,0 / min-luma=0 / max-luma=1023 / log2-max-poc-lsb=8 / vui-timing-info / vui-hrd-info / slices=1 / opt-qp-pps / opt-ref-list-length-pps / no-multi-pass-opt-rps / scenecut-bias=0.05 / no-opt-cu-delta-qp / no-aq-motion / no-hdr / no-hdr-opt / no-dhdr10-opt / no-idr-recovery-sei / analysis-reuse-level=5 / scale-factor=0 / refine-intra=0 / refine-inter=0 / refine-mv=0 / refine-ctu-distortion=0 / no-limit-sao / ctu-info=0 / no-lowpass-dct / refine-analysis-type=0 / copy-pic=1 / max-ausize-factor=1.0 / no-dynamic-refine / no-single-sei / no-hevc-aq / qp-adaptation-range=1.00
  22. Default                                  : Yes
  23. Forced                                   : No

  24. Audio #1
  25. ID                                       : 2
  26. Format                                   : DTS XLL X
  27. Format/Info                              : Digital Theater Systems
  28. Commercial name                          : DTS-HD Master Audio
  29. Codec ID                                 : A_DTS
  30. Duration                                 : 2 h 49 min
  31. Bit rate mode                            : Variable
  32. Bit rate                                 : 5 793 kb/s
  33. Channel(s)                               : 8 channels
  34. Channel(s)_Original                      : Object Based
  35. Channel layout                           : Object Based
  36. Sampling rate                            : 48.0 kHz
  37. Frame rate                               : 93.750 FPS (512 SPF)
  38. Bit depth                                : 24 bits
  39. Stream size                              : 6.87 GiB (9%)
  40. Title                                    : Scarface.1983.2160p.BluRay.x265.10bit.SDR.DTS-X.7.1-SWTYBLZ
  41. Language                                 : English
  42. Default                                  : Yes
  43. Forced                                   : No

  44. Audio #2
  45. ID                                       : 3
  46. Format                                   : AC-3
  47. Format/Info                              : Audio Coding 3
  48. Commercial name                          : Dolby Digital
  49. Codec ID                                 : A_AC3
  50. Duration                                 : 2 h 49 min
  51. Bit rate mode                            : Constant
  52. Bit rate                                 : 640 kb/s
  53. Channel(s)                               : 6 channels
  54. Channel layout                           : L R C LFE Ls Rs
  55. Sampling rate                            : 48.0 kHz
  56. Frame rate                               : 31.250 FPS (1536 SPF)
  57. Bit depth                                : 16 bits
  58. Compression mode                         : Lossy
  59. Stream size                              : 778 MiB (1%)
  60. Title                                    : Scarface.1983.2160p.BluRay.x265.10bit.SDR.DTS-X.7.1-SWTYBLZ
  61. Language                                 : English
  62. Service kind                             : Complete Main
  63. Default                                  : No
  64. Forced                                   : No

  65. Text #1
  66. ID                                       : 4
  67. Format                                   : UTF-8
  68. Codec ID                                 : S_TEXT/UTF8
  69. Codec ID/Info                            : UTF-8 Plain Text
  70. Duration                                 : 2 h 39 min
  71. Bit rate                                 : 57 b/s
  72. Count of elements                        : 2268
  73. Stream size                              : 67.5 KiB (0%)
  74. Title                                    : English-SRT
  75. Language                                 : English
  76. Default                                  : Yes
  77. Forced                                   : No

  78. Text #2
  79. ID                                       : 5
  80. Format                                   : UTF-8
  81. Codec ID                                 : S_TEXT/UTF8
  82. Codec ID/Info                            : UTF-8 Plain Text
  83. Duration                                 : 2 h 42 min
  84. Bit rate                                 : 59 b/s
  85. Count of elements                        : 2406
  86. Stream size                              : 70.7 KiB (0%)
  87. Title                                    : English-SDHSRT
  88. Language                                 : English
  89. Default                                  : No
  90. Forced                                   : No

  91. Text #3
  92. ID                                       : 6
  93. Format                                   : PGS
  94. Muxing mode                              : zlib
  95. Codec ID                                 : S_HDMV/PGS
  96. Codec ID/Info                            : Picture based subtitle format used on BDs/HD-DVDs
  97. Duration                                 : 2 h 42 min
  98. Bit rate                                 : 39.1 kb/s
  99. Count of elements                        : 4812
  100. Stream size                              : 45.4 MiB (0%)
  101. Title                                    : English-PGS
  102. Language                                 : English
  103. Default                                  : No
  104. Forced                                   : No

  105. Text #4
  106. ID                                       : 7
  107. Format                                   : PGS
  108. Muxing mode                              : zlib
  109. Codec ID                                 : S_HDMV/PGS
  110. Codec ID/Info                            : Picture based subtitle format used on BDs/HD-DVDs
  111. Duration                                 : 2 h 43 min
  112. Bit rate                                 : 25.2 kb/s
  113. Count of elements                        : 3682
  114. Stream size                              : 29.6 MiB (0%)
  115. Title                                    : Spanish-PGS
  116. Language                                 : Spanish
  117. Default                                  : No
  118. Forced                                   : No

  119. Text #5
  120. ID                                       : 8
  121. Format                                   : PGS
  122. Muxing mode                              : zlib
  123. Codec ID                                 : S_HDMV/PGS
  124. Codec ID/Info                            : Picture based subtitle format used on BDs/HD-DVDs
  125. Duration                                 : 2 h 43 min
  126. Bit rate                                 : 28.2 kb/s
  127. Count of elements                        : 3636
  128. Stream size                              : 33.1 MiB (0%)
  129. Title                                    : French-PGS
  130. Language                                 : French
  131. Default                                  : No
  132. Forced                                   : No

  133. Menu
  134. 00:00:00.000                             : en:Chapter 01
  135. 00:08:11.574                             : en:Chapter 02
  136. 00:10:55.237                             : en:Chapter 03
  137. 00:13:40.194                             : en:Chapter 04
  138. 00:15:43.025                             : en:Chapter 05
  139. 00:20:57.923                             : en:Chapter 06
  140. 00:29:51.289                             : en:Chapter 07
  141. 00:33:09.362                             : en:Chapter 08
  142. 00:34:42.538                             : en:Chapter 09
  143. 00:43:13.090                             : en:Chapter 10
  144. 00:46:46.053                             : en:Chapter 11
  145. 00:50:45.042                             : en:Chapter 12
  146. 00:59:02.705                             : en:Chapter 13
  147. 01:04:15.643                             : en:Chapter 14
  148. 01:08:20.471                             : en:Chapter 15
  149. 01:12:57.206                             : en:Chapter 16
  150. 01:17:17.841                             : en:Chapter 17
  151. 01:23:33.008                             : en:Chapter 18
  152. 01:28:48.031                             : en:Chapter 19
  153. 01:33:44.243                             : en:Chapter 20
  154. 01:43:31.413                             : en:Chapter 21
  155. 01:47:01.706                             : en:Chapter 22
  156. 01:51:48.410                             : en:Chapter 23
  157. 01:57:19.991                             : en:Chapter 24
  158. 02:02:43.105                             : en:Chapter 25
  159. 02:07:08.203                             : en:Chapter 26
  160. 02:13:58.405                             : en:Chapter 27
  161. 02:16:04.447                             : en:Chapter 28
  162. 02:21:45.705                             : en:Chapter 29
  163. 02:24:22.779                             : en:Chapter 30
  164. 02:30:37.778                             : en:Chapter 31
  165. 02:35:14.888                             : en:Chapter 32
  166. 02:37:33.068                             : en:Chapter 33
  167. 02:40:04.177                             : en:Chapter 34
  168. 02:43:20.999                             : en:Chapter 35
復制代碼









本帖隱藏的下載地址需要VIP會員才可瀏覽,您需要升級才可瀏覽,點擊這里升級VIP
分享到:  QQ好友和群QQ好友和群
收藏收藏
VIP會員免費任意下載本站所有資源!---點擊開通
回復

使用道具 舉報

懶得打字嘛,點擊右側快捷回復 【右側內容,后臺自定義】
您需要登錄后才可以回帖 登錄 | 立即注冊

本版積分規則

QQ|Archiver|手機版|小黑屋| 中國高清網 |網站地圖

GMT+8, 2019-10-17 19:00 , Processed in 0.236486 second(s), 38 queries .

Powered by HDchina X3.4

Copyright 2017-2019©HDchina.All right reserved

返回頂部 聯系我們
活塞对步行者历史记录