查看: 31|回復: 1
打印 上一主題 下一主題

[REMUX.HEVC] 美國黑幫/犯罪帝國 American.Gangster.2007.EXTENDED.2160p.BluRay.REMUX.HEVC.DTS-X.7.1-FGT 69.27GB

[復制鏈接]

 成長值: 2860

級別:資源管理組

注冊時間
2017-10-20
最后登錄
2019-10-17
聽眾
1
收聽
0
主題
84967
藍光幣
55497 枚
貢獻
9324 點
跳轉到指定樓層
樓主


譯  名 美國黑幫 / 犯罪帝國 / 美國土匪
片  名 American Gangster
年  代 2007
產  地 美國
類  別 劇情 / 犯罪
語  言 英語
上映日期 2007-11-02(美國)
IMDb評分  7.8/10 from 371827 users
IMDb鏈接  https://www.imdb.com/title/tt0765429
豆瓣評分 7.9/10 from 37813 users
豆瓣鏈接 https://movie.douban.com/subject/1578503/
片  長 157 分鐘
導  演 Ridley Scott
編  劇 Steven Zaillian / Mark Jacobson
主  演 丹澤爾·華盛頓 Denzel Washington
       羅素·克勞 Russell Crowe
       切瓦特·埃加福特 Chiwetel Ejiofor
       喬什·布洛林 Josh Brolin
       里瑪莉·娜妲 Lymari Nadal
       泰德·拉文 Ted Levine
       羅杰·格午埃文·史密斯 Roger Guenveur Smith
       約翰·浩克斯 John Hawkes
       RZA
       尤爾·瓦斯克斯 Yul Vazquez
       Malcolm Goodwin
       露比·迪 Ruby Dee
       Ruben Santiago-Hudson
       卡拉·古奇諾 Carla Gugino
       Skyler Fortgang


標  簽 黑幫 | 美國 | 犯罪 | DenzelWashington | 美國黑幫 | 美國電影 | RussellCrowe | 2007

簡  介  

  上世紀70年代,哈萊姆黑人區,弗蘭克?盧卡斯(丹澤爾?華盛頓 飾)是黑幫老大約翰遜的司機。約翰遜暴斃后,弗蘭克充分利用了這個來之不易的機會,將地下世界的所有權利分配進行了重組,成功上位,接手大佬事業,掌控了毒品交易大權。期間他遠赴東南亞金三角走私高純度海洛因,張羅自己的家族兄弟,集結了一幫為他賣命的手下,一股黑暗勢力正在興起。
  另一邊,警察里奇?羅伯茨(盧塞爾?克勞 飾)家庭破裂,與主流社會格格不入,整天以一副邋遢鬼模樣流連于街頭。他慢慢覺察出毒品圈內的風起云涌,,并展開了秘密調查。
  隨著調查的深入,羅伯茨和盧卡斯之間的距離越來越短,兩個氣質相近,惺惺相惜的男人,不可避免地進行正面對決……

獲獎情況  

  第80屆奧斯卡金像獎(2008)
  最佳女配角(提名) 露比·迪
  最佳藝術指導(提名) 阿瑟·馬克斯 / Beth A. Rubino

  第65屆金球獎(2008)
  電影類 最佳劇情片(提名)
  電影類 最佳導演(提名) 雷德利·斯科特
  電影類 劇情片最佳男主角(提名) 丹澤爾·華盛頓

  第61屆英國電影妹院獎(2008)
  電影獎 最佳影片(提名) 雷德利·斯科特 / 布萊恩·格雷澤
  電影獎 最佳原創劇本(提名) 斯蒂文·澤里安
  電影獎 最佳攝影(提名) 哈里斯·薩維德斯
  電影獎 最佳剪輯(提名) 彼得羅·斯卡利亞
  電影獎 最佳原創音樂(提名) 馬克·斯特雷滕菲爾德

  第17屆MTV電影獎(2008)
  MTV電影獎 最佳男演員(提名) 丹澤爾·華盛頓
  MTV電影獎 最佳反派(提名) 丹澤爾·華盛頓
  1. Video
  2. ID                                       : 1
  3. Format                                   : HEVC
  4. Format/Info                              : High Efficiency Video Coding
  5. Format profile                           : Main [email protected]@High
  6. HDR format                               : SMPTE ST 2094 App 4, Version 1, HDR10+ Profile B compatible
  7. Codec ID                                 : V_MPEGH/ISO/HEVC
  8. Duration                                 : 2 h 55 min
  9. Bit rate                                 : 50.5 Mb/s
  10. Width                                    : 3 840 pixels
  11. Height                                   : 2 160 pixels
  12. Display aspect ratio                     : 16:9
  13. Frame rate mode                          : Constant
  14. Frame rate                               : 23.976 (24000/1001) FPS
  15. Color space                              : YUV
  16. Chroma subsampling                       : 4:2:0 (Type 2)
  17. Bit depth                                : 10 bits
  18. Bits/(Pixel*Frame)                       : 0.254
  19. Stream size                              : 62.0 GiB (90%)
  20. Title                                    : American.Gangster.2007.EXTENDED.2160p.BluRay.REMUX.HEVC.DTS-X.7.1-FGT
  21. Writing library                          : ATEME Titan File 3.9.0 (4.9.0.0)        
  22. Language                                 : English
  23. Default                                  : No
  24. Forced                                   : No
  25. Color range                              : Limited
  26. Color primaries                          : BT.2020
  27. Transfer characteristics                 : PQ
  28. Matrix coefficients                      : BT.2020 non-constant
  29. Mastering display color primaries        : Display P3
  30. Mastering display luminance              : min: 0.0050 cd/m2, max: 1000 cd/m2
  31. Maximum Content Light Level              : 1179 cd/m2
  32. Maximum Frame-Average Light Level        : 501 cd/m2

  33. Audio
  34. ID                                       : 2
  35. Format                                   : DTS XLL X
  36. Format/Info                              : Digital Theater Systems
  37. Commercial name                          : DTS-HD Master Audio
  38. Codec ID                                 : A_DTS
  39. Duration                                 : 2 h 55 min
  40. Bit rate mode                            : Variable
  41. Bit rate                                 : 5 844 kb/s
  42. Channel(s)                               : 8 channels
  43. Channel(s)_Original                      : Object Based
  44. Channel layout                           : Object Based
  45. Sampling rate                            : 48.0 kHz
  46. Frame rate                               : 93.750 FPS (512 SPF)
  47. Bit depth                                : 24 bits
  48. Stream size                              : 7.18 GiB (10%)
  49. Title                                    : American.Gangster.2007.EXTENDED.2160p.BluRay.REMUX.HEVC.DTS-X.7.1-FGT
  50. Language                                 : English
  51. Default                                  : Yes
  52. Forced                                   : No

  53. Text #1
  54. ID                                       : 3
  55. Format                                   : UTF-8
  56. Codec ID                                 : S_TEXT/UTF8
  57. Codec ID/Info                            : UTF-8 Plain Text
  58. Duration                                 : 2 h 46 min
  59. Bit rate                                 : 69 b/s
  60. Count of elements                        : 2627
  61. Stream size                              : 84.0 KiB (0%)
  62. Title                                    : English-SRT
  63. Language                                 : English
  64. Default                                  : Yes
  65. Forced                                   : No

  66. Text #2
  67. ID                                       : 4
  68. Format                                   : PGS
  69. Muxing mode                              : zlib
  70. Codec ID                                 : S_HDMV/PGS
  71. Codec ID/Info                            : Picture based subtitle format used on BDs/HD-DVDs
  72. Duration                                 : 2 h 47 min
  73. Bit rate                                 : 41.2 kb/s
  74. Count of elements                        : 5600
  75. Stream size                              : 49.4 MiB (0%)
  76. Title                                    : English-PGS
  77. Language                                 : English
  78. Default                                  : No
  79. Forced                                   : No

  80. Text #3
  81. ID                                       : 5
  82. Format                                   : PGS
  83. Muxing mode                              : zlib
  84. Codec ID                                 : S_HDMV/PGS
  85. Codec ID/Info                            : Picture based subtitle format used on BDs/HD-DVDs
  86. Duration                                 : 2 h 46 min
  87. Bit rate                                 : 34.0 kb/s
  88. Count of elements                        : 4562
  89. Stream size                              : 40.6 MiB (0%)
  90. Title                                    : Spanish-PGS
  91. Language                                 : Spanish
  92. Default                                  : No
  93. Forced                                   : No

  94. Text #4
  95. ID                                       : 6
  96. Format                                   : PGS
  97. Muxing mode                              : zlib
  98. Codec ID                                 : S_HDMV/PGS
  99. Codec ID/Info                            : Picture based subtitle format used on BDs/HD-DVDs
  100. Duration                                 : 2 h 46 min
  101. Bit rate                                 : 33.6 kb/s
  102. Count of elements                        : 4552
  103. Stream size                              : 40.1 MiB (0%)
  104. Title                                    : French-PGS
  105. Language                                 : French
  106. Default                                  : No
  107. Forced                                   : No

  108. Menu
  109. 00:00:00.000                             : en:Chapter 01
  110. 00:06:48.449                             : en:Chapter 02
  111. 00:14:07.263                             : en:Chapter 03
  112. 00:25:42.707                             : en:Chapter 04
  113. 00:32:19.938                             : en:Chapter 05
  114. 00:37:33.584                             : en:Chapter 06
  115. 00:43:48.876                             : en:Chapter 07
  116. 00:51:25.457                             : en:Chapter 08
  117. 00:57:21.521                             : en:Chapter 09
  118. 01:15:30.651                             : en:Chapter 10
  119. 01:20:53.181                             : en:Chapter 11
  120. 01:29:01.252                             : en:Chapter 12
  121. 01:37:22.169                             : en:Chapter 13
  122. 01:44:01.610                             : en:Chapter 14
  123. 01:55:33.885                             : en:Chapter 15
  124. 02:04:59.116                             : en:Chapter 16
  125. 02:13:00.639                             : en:Chapter 17
  126. 02:20:08.525                             : en:Chapter 18
  127. 02:31:52.603                             : en:Chapter 19
  128. 02:48:01.446                             : en:Chapter 20
復制代碼









本帖隱藏的下載地址需要VIP會員才可瀏覽,您需要升級才可瀏覽,點擊這里升級VIP
分享到:  QQ好友和群QQ好友和群
收藏收藏
VIP會員免費任意下載本站所有資源!---點擊開通
回復

使用道具 舉報

級別:專業龍套 Lv.4

注冊時間
2019-3-30
最后登錄
2019-10-17
聽眾
14
收聽
0
主題
0
藍光幣
339 枚
貢獻
0 點
沙發
發表于 4 天前 | 只看該作者
這片子還可以吧
VIP會員免費任意下載本站所有資源!---點擊開通
回復

使用道具 舉報

懶得打字嘛,點擊右側快捷回復 【右側內容,后臺自定義】
您需要登錄后才可以回帖 登錄 | 立即注冊

本版積分規則

QQ|Archiver|手機版|小黑屋| 中國高清網 |網站地圖

GMT+8, 2019-10-18 01:40 , Processed in 0.263417 second(s), 38 queries .

Powered by HDchina X3.4

Copyright 2017-2019©HDchina.All right reserved

返回頂部 聯系我們
活塞对步行者历史记录